Set as default Homepage|Bookmark
 
 
» » Humble Politician Nograj (2018) Kannada - 1080p - WEB-HD - AVC - AAC-TMV
Advertise

Humble Politician Nograj (2018) Kannada - 1080p - WEB-HD - AVC - AAC-TMV

Author: wroser on 9-02-2018, 14:34
Humble Politician Nograj (2018) Kannada - 1080p - WEB-HD - AVC - AAC-TMV





General
Format                      : MPEG-4
Format profile              : Base Media / Version 2
Codec ID                    : mp42 (isom/iso2/avc1/mp41)
File size                   : 3.90 GiB
Duration                    : 2 h 24 min
Overall bit rate mode       : Variable
Overall bit rate            : 3 869 kb/s
Encoded date                : UTC 2018-02-09 03:02:35
Tagged date                 : UTC 2018-02-09 03:02:35
Writing application         : HandBrake 1.0.7 2017040900

Video
ID                          : 1
Format                      : AVC
Format/Info                 : Advanced Video Codec
Format profile              : Main@L4
Format settings, CABAC      : Yes
Format settings, RefFrames  : 4 frames
Codec ID                    : avc1
Codec ID/Info               : Advanced Video Coding
Duration                    : 2 h 24 min
Bit rate                    : 3 760 kb/s
Width                       : 1 920 pixels
Height                      : 950 pixels
Display aspect ratio        : 2.021
Frame rate mode             : Variable
Frame rate                  : 23.887 FPS
Minimum frame rate          : 5.000 FPS
Maximum frame rate          : 51.517 FPS
Color space                 : YUV
Chroma subsampling          : 4:2:0
Bit depth                   : 8 bits
Scan type                   : Progressive
Bits/(Pixel*Frame)          : 0.086
Stream size                 : 3.78 GiB (97%)
Writing library             : x264 core 148 r2708 86b7198
Encoding settings           : cabac=1 / ref=1 / deblock=1:0:0 / analyse=0x1:0x111 / me=hex / subme=2 / psy=1 / psy_rd=1.00:0.00 / mixed_ref=0 / me_range=16 / chroma_me=1 / trellis=0 / 8x8dct=0 / cqm=0 / deadzone=21,11 / fast_pskip=1 / chroma_qp_offset=0 / threads=12 / lookahead_threads=4 / sliced_threads=0 / nr=0 / decimate=1 / interlaced=0 / bluray_compat=0 / constrained_intra=0 / bframes=3 / b_pyramid=2 / b_adapt=1 / b_bias=0 / direct=1 / weightb=1 / open_gop=0 / weightp=1 / keyint=240 / keyint_min=24 / scenecut=40 / intra_refresh=0 / rc_lookahead=10 / rc=abr / mbtree=1 / bitrate=3760 / ratetol=1.0 / qcomp=0.60 / qpmin=0 / qpmax=69 / qpstep=4 / vbv_maxrate=20000 / vbv_bufsize=25000 / nal_hrd=none / filler=0 / ip_ratio=1.40 / aq=1:1.00
Encoded date                : UTC 2018-02-09 03:02:35
Tagged date                 : UTC 2018-02-09 03:02:35
Color range                 : Limited
Color primaries             : BT.709
Transfer characteristics    : BT.709
Matrix coefficients         : BT.709

Audio
ID                          : 2
Format                      : AAC
Format/Info                 : Advanced Audio Codec
Format profile              : LC
Codec ID                    : 40
Duration                    : 2 h 24 min
Bit rate mode               : Variable
Bit rate                    : 112 kb/s
Channel(s)                  : 2 channels
Channel positions           : Front: L R
Sampling rate               : 48.0 kHz
Frame rate                  : 46.875 FPS (1024 SPF)
Compression mode            : Lossy
Stream size                 : 116 MiB (3%)
Title                       : Stereo / Stereo
Default                     : Yes
Alternate group             : 1
Encoded date                : UTC 2018-02-09 03:02:35
Tagged date                 : UTC 2018-02-09 03:02:35



Humble Politician Nograj (2018) Kannada - 1080p - WEB-HD - AVC - AAC-TMVHumble Politician Nograj (2018) Kannada - 1080p - WEB-HD - AVC - AAC-TMVHumble Politician Nograj (2018) Kannada - 1080p - WEB-HD - AVC - AAC-TMVHumble Politician Nograj (2018) Kannada - 1080p - WEB-HD - AVC - AAC-TMV


SINGLE DIRECT FAST LINKS
http://filefloater.com/4qo/Humble.Politician.Nograj.2018.Kannada.WEB-HD.1080p.AVC.AACTMV.mp4


https://www.heroupload.com/729a79bbbd2fbc17/Humble.Politician.Nograj.2018.Kannada.WEB-HD.1080p.AVC.AACTMV.mp4

700MB LINKS

http://filefloater.com/4qp/Humble.Politician.Nograj.2018.Kannada.WEB-HD.1080p.AVC.AACTMV.part1.rar
http://filefloater.com/4qq/Humble.Politician.Nograj.2018.Kannada.WEB-HD.1080p.AVC.AACTMV.part2.rar
http://filefloater.com/4qr/Humble.Politician.Nograj.2018.Kannada.WEB-HD.1080p.AVC.AACTMV.part3.rar
http://filefloater.com/4qs/Humble.Politician.Nograj.2018.Kannada.WEB-HD.1080p.AVC.AACTMV.part4.rar
http://filefloater.com/4qt/Humble.Politician.Nograj.2018.Kannada.WEB-HD.1080p.AVC.AACTMV.part5.rar
http://filefloater.com/4qu/Humble.Politician.Nograj.2018.Kannada.WEB-HD.1080p.AVC.AACTMV.part6.rar



https://www.heroupload.com/28bfa8457ab3f5dc/Humble.Politician.Nograj.2018.Kannada.WEB-HD.1080p.AVC.AACTMV.part1.rar
https://www.heroupload.com/139a9f28ceba208e/Humble.Politician.Nograj.2018.Kannada.WEB-HD.1080p.AVC.AACTMV.part2.rar
https://www.heroupload.com/a4537aa6c85016ec/Humble.Politician.Nograj.2018.Kannada.WEB-HD.1080p.AVC.AACTMV.part3.rar
https://www.heroupload.com/2880bddcdf1b00f8/Humble.Politician.Nograj.2018.Kannada.WEB-HD.1080p.AVC.AACTMV.part4.rar
https://www.heroupload.com/303e89c19d49247f/Humble.Politician.Nograj.2018.Kannada.WEB-HD.1080p.AVC.AACTMV.part5.rar
https://www.heroupload.com/404c823581509685/Humble.Politician.Nograj.2018.Kannada.WEB-HD.1080p.AVC.AACTMV.part6.rar


Теги: Humble

Dear visitor, you are browsing our website as Guest.
We strongly recommend you to register and login to view hidden contents.

Comments:

Add Comments