Set as default Homepage|Bookmark
 
 
» » Humble Politician Nograj (2018) Kannada - 720p - HDRip - x264 - DD5.1 - TMV
Advertise

Humble Politician Nograj (2018) Kannada - 720p - HDRip - x264 - DD5.1 - TMV

Author: wroser on 9-02-2018, 14:31
Humble Politician Nograj (2018) Kannada - 720p - HDRip - x264 - DD5.1 - TMV





General
Format                      : Matroska
Format version              : Version 4 / Version 2
File size                   : 1.42 GiB
Duration                    : 2 h 24 min
Overall bit rate            : 1 403 kb/s
Encoded date                : UTC 2018-02-09 05:32:43
Writing application         : mkvmerge v7.1.0 ('Good Love') 32bit built on Jul 27 2014 12:59:18
Writing library             : libebml v1.3.0 + libmatroska v1.4.1

Video
ID                          : 1
Format                      : AVC
Format/Info                 : Advanced Video Codec
Format profile              : Main@L4
Format settings, CABAC      : Yes
Format settings, RefFrames  : 4 frames
Codec ID                    : V_MPEG4/ISO/AVC
Duration                    : 2 h 24 min
Bit rate                    : 1 274 kb/s
Width                       : 1 280 pixels
Height                      : 564 pixels
Display aspect ratio        : 2.25:1
Frame rate mode             : Variable
Frame rate                  : 23.887 FPS
Color space                 : YUV
Chroma subsampling          : 4:2:0
Bit depth                   : 8 bits
Scan type                   : Progressive
Bits/(Pixel*Frame)          : 0.074
Stream size                 : 1.28 GiB (91%)
Writing library             : x264 core 148 r2708 86b7198
Encoding settings           : cabac=1 / ref=1 / deblock=1:0:0 / analyse=0x1:0x111 / me=hex / subme=2 / psy=1 / psy_rd=1.00:0.00 / mixed_ref=0 / me_range=16 / chroma_me=1 / trellis=0 / 8x8dct=0 / cqm=0 / deadzone=21,11 / fast_pskip=1 / chroma_qp_offset=0 / threads=12 / lookahead_threads=4 / sliced_threads=0 / nr=0 / decimate=1 / interlaced=0 / bluray_compat=0 / constrained_intra=0 / bframes=3 / b_pyramid=2 / b_adapt=1 / b_bias=0 / direct=1 / weightb=1 / open_gop=0 / weightp=1 / keyint=240 / keyint_min=24 / scenecut=40 / intra_refresh=0 / rc_lookahead=10 / rc=abr / mbtree=1 / bitrate=1274 / ratetol=1.0 / qcomp=0.60 / qpmin=0 / qpmax=69 / qpstep=4 / vbv_maxrate=20000 / vbv_bufsize=25000 / nal_hrd=none / filler=0 / ip_ratio=1.40 / aq=1:1.00
Language                    : Kannada
Default                     : Yes
Forced                      : No
Color range                 : Limited
Color primaries             : BT.709
Transfer characteristics    : BT.709
Matrix coefficients         : BT.709

Audio
ID                          : 2
Format                      : AC-3
Format/Info                 : Audio Coding 3
Format settings, Endianness : Big
Codec ID                    : A_AC3
Duration                    : 2 h 24 min
Bit rate mode               : Constant
Bit rate                    : 128 kb/s
Channel(s)                  : 6 channels
Channel positions           : Front: L C R, Side: L R, LFE
Sampling rate               : 44.1 kHz
Frame rate                  : 28.711 FPS (1536 SPF)
Bit depth                   : 16 bits
Compression mode            : Lossy
Delay relative to video     : -21 ms
Stream size                 : 132 MiB (9%)
Language                    : Kannada
Service kind                : Complete Main
Default                     : Yes
Forced                      : No




Humble Politician Nograj (2018) Kannada - 720p - HDRip - x264 - DD5.1 - TMVHumble Politician Nograj (2018) Kannada - 720p - HDRip - x264 - DD5.1 - TMVHumble Politician Nograj (2018) Kannada - 720p - HDRip - x264 - DD5.1 - TMVHumble Politician Nograj (2018) Kannada - 720p - HDRip - x264 - DD5.1 - TMV



SINGLE DIRECT FAST LINKS

http://filefloater.com/4qn/Humble.Politician.Nograj.2018.Kannada.HDRip.720p.x264.DD5.1-TMV.mkv



https://www.heroupload.com/55c506b6a0d362d8/Humble.Politician.Nograj.2018.Kannada.HDRip.720p.x264.DD5.1-TMV.mkv



Теги: Humble

Dear visitor, you are browsing our website as Guest.
We strongly recommend you to register and login to view hidden contents.

Comments:

Add Comments