Set as default Homepage|Bookmark
 
 
» » Orayiram Kinakkalal (2018) Malayalam - 720p - DVDRip - 720p - x264 - AAC - ESub-TMV
Advertise

Orayiram Kinakkalal (2018) Malayalam - 720p - DVDRip - 720p - x264 - AAC - ESub-TMV

Author: wroser on 14-06-2018, 23:28
Orayiram Kinakkalal (2018) Malayalam - 720p - DVDRip - 720p - x264 - AAC - ESub-TMV




General
Format                      : Matroska
Format version              : Version 4 / Version 2
File size                   : 1.37 GiB
Duration                    : 2 h 21 min
Overall bit rate            : 1 389 kb/s
Encoded date                : UTC 2018-06-14 10:03:40
Writing application         : mkvmerge v7.1.0 ('Good Love') 32bit built on Jul 27 2014 12:59:18
Writing library             : libebml v1.3.0 + libmatroska v1.4.1

Video
ID                          : 1
Format                      : AVC
Format/Info                 : Advanced Video Codec
Format profile              : Main@L4
Format settings, CABAC      : Yes
Format settings, RefFrames  : 4 frames
Codec ID                    : V_MPEG4/ISO/AVC
Duration                    : 2 h 21 min
Bit rate                    : 1 260 kb/s
Width                       : 1 280 pixels
Height                      : 544 pixels
Display aspect ratio        : 2.35:1
Frame rate mode             : Constant
Frame rate                  : 23.976 (24000/1001) FPS
Color space                 : YUV
Chroma subsampling          : 4:2:0
Bit depth                   : 8 bits
Scan type                   : Progressive
Bits/(Pixel*Frame)          : 0.075
Stream size                 : 1.24 GiB (91%)
Writing library             : x264 core 155 r2893 b00bcaf
Encoding settings           : cabac=1 / ref=3 / deblock=1:0:0 / analyse=0x1:0x111 / me=hex / subme=7 / psy=1 / psy_rd=1.00:0.00 / mixed_ref=1 / me_range=16 / chroma_me=1 / trellis=1 / 8x8dct=0 / cqm=0 / deadzone=21,11 / fast_pskip=1 / chroma_qp_offset=-2 / threads=12 / lookahead_threads=2 / sliced_threads=0 / nr=0 / decimate=1 / interlaced=0 / bluray_compat=0 / constrained_intra=0 / bframes=3 / b_pyramid=2 / b_adapt=1 / b_bias=0 / direct=1 / weightb=1 / open_gop=0 / weightp=2 / keyint=240 / keyint_min=24 / scenecut=40 / intra_refresh=0 / rc_lookahead=40 / rc=2pass / mbtree=1 / bitrate=1260 / ratetol=1.0 / qcomp=0.60 / qpmin=0 / qpmax=69 / qpstep=4 / cplxblur=20.0 / qblur=0.5 / vbv_maxrate=20000 / vbv_bufsize=25000 / nal_hrd=none / filler=0 / ip_ratio=1.40 / aq=1:1.00
Language                    : Malayalam
Default                     : Yes
Forced                      : No
Color range                 : Limited
Color primaries             : BT.601 NTSC
Transfer characteristics    : BT.709
Matrix coefficients         : BT.601

Audio
ID                          : 2
Format                      : AAC
Format/Info                 : Advanced Audio Codec
Format profile              : LC
Codec ID                    : A_AAC
Duration                    : 2 h 21 min
Bit rate                    : 127 kb/s
Channel(s)                  : 2 channels
Channel positions           : Front: L R
Sampling rate               : 48.0 kHz
Frame rate                  : 46.875 FPS (1024 SPF)
Compression mode            : Lossy
Stream size                 : 128 MiB (9%)
Language                    : Malayalam
Default                     : Yes
Forced                      : No

Text
ID                          : 3
Format                      : UTF-8
Codec ID                    : S_TEXT/UTF8
Codec ID/Info               : UTF-8 Plain Text
Duration                    : 2 h 15 min
Bit rate                    : 52 b/s
Count of elements           : 1700
Stream size                 : 52.0 KiB (0%)
Language                    : English
Default                     : Yes
Forced                      : No



Orayiram Kinakkalal (2018) Malayalam - 720p - DVDRip - 720p - x264 - AAC - ESub-TMVOrayiram Kinakkalal (2018) Malayalam - 720p - DVDRip - 720p - x264 - AAC - ESub-TMVOrayiram Kinakkalal (2018) Malayalam - 720p - DVDRip - 720p - x264 - AAC - ESub-TMVOrayiram Kinakkalal (2018) Malayalam - 720p - DVDRip - 720p - x264 - AAC - ESub-TMVOrayiram Kinakkalal (2018) Malayalam - 720p - DVDRip - 720p - x264 - AAC - ESub-TMV


SINGLE DIRECT FAST LINKS

http://www.heroupload.us/566d769bada7af1a/Orayiram.Kinakkalal.2018.Malayalam.DVDRip.720p.x264.ESub-TMV.mkv



http://filefloater.com/Tpq/Orayiram.Kinakkalal.2018.Malayalam.DVDRip.720p.x264.ESub-TMV.mkv





Теги: Orayiram

Dear visitor, you are browsing our website as Guest.
We strongly recommend you to register and login to view hidden contents.

Comments:

Add Comments
Reply
  • Group: Members
  • ICQ:
  • Registration: 25.06.2018
  • Status: Currently Offline
  • 1 Comment
  • 0 Article
^
The headliner in which judges saw the genuine craftsman. The genuine craftsman is great and he is demonstrating their masterpaperwriters.com review and the excellence of he things. On the off chance that they pass this work of art rivalry then they are chosen for their next match.
Reply
  • Jermi

  • 4 July 2018 04:11
  • Group: Guests
  • ICQ:
  • Registration: --
  • Status:
  • 0 Comment
  • 0 Article
^
Orayiram Kinakkalal is the name of a play. The reviews of people who watched this play are having good reviews about the movie but it would be difficult for them to give reviews about essayontime.com review. A best idea in this regard is that people will like this blog so much.