Set as default Homepage|Bookmark
 
 
» » Ankarajyathe Jimmanmar (2018) Malayalam - 1.37GB - 1/3DVDRip - x264 - AAC5.1-MTR
Advertise

Ankarajyathe Jimmanmar (2018) Malayalam - 1.37GB - 1/3DVDRip - x264 - AAC5.1-MTR

Author: wroser on 22-05-2018, 23:29
Ankarajyathe Jimmanmar (2018) Malayalam - 1.37GB - 1/3DVDRip - x264 - AAC5.1-MTR






General
Format                      : Matroska
Format version              : Version 4 / Version 2
File size                   : 1.39 GiB
Duration                    : 2 h 6 min
Overall bit rate            : 1 573 kb/s
Encoded date                : UTC 2018-05-20 10:36:11
Writing application         : mkvmerge v20.0.0 ('I Am The Sun') 32-bit
Writing library             : libebml v1.3.5 + libmatroska v1.4.8

Video
ID                          : 1
Format                      : AVC
Format/Info                 : Advanced Video Codec
Format profile              : Main@L4
Format settings, CABAC      : Yes
Format settings, RefFrames  : 4 frames
Codec ID                    : V_MPEG4/ISO/AVC
Duration                    : 2 h 6 min
Bit rate                    : 1 459 kb/s
Width                       : 720 pixels
Height                      : 320 pixels
Display aspect ratio        : 2.25:1
Frame rate mode             : Variable
Frame rate                  : 23.976 (23976/1000) FPS
Color space                 : YUV
Chroma subsampling          : 4:2:0
Bit depth                   : 8 bits
Scan type                   : Progressive
Bits/(Pixel*Frame)          : 0.264
Stream size                 : 1.29 GiB (93%)
Writing library             : x264 core 148 r2708 86b7198
Encoding settings           : cabac=1 / ref=2 / deblock=1:0:0 / analyse=0x1:0x111 / me=hex / subme=6 / psy=1 / psy_rd=1.00:0.00 / mixed_ref=1 / me_range=16 / chroma_me=1 / trellis=1 / 8x8dct=0 / cqm=0 / deadzone=21,11 / fast_pskip=1 / chroma_qp_offset=-2 / threads=6 / lookahead_threads=1 / sliced_threads=0 / nr=0 / decimate=1 / interlaced=0 / bluray_compat=0 / constrained_intra=0 / bframes=3 / b_pyramid=2 / b_adapt=1 / b_bias=0 / direct=1 / weightb=1 / open_gop=0 / weightp=1 / keyint=300 / keyint_min=30 / scenecut=40 / intra_refresh=0 / rc_lookahead=30 / rc=2pass / mbtree=1 / bitrate=1459 / ratetol=1.0 / qcomp=0.60 / qpmin=0 / qpmax=69 / qpstep=4 / cplxblur=20.0 / qblur=0.5 / vbv_maxrate=20000 / vbv_bufsize=25000 / nal_hrd=none / filler=0 / ip_ratio=1.40 / aq=1:1.00
Language                    : English
Default                     : Yes
Forced                      : No
Color range                 : Limited
Color primaries             : BT.601 NTSC
Transfer characteristics    : BT.709
Matrix coefficients         : BT.601

Audio
ID                          : 2
Format                      : AAC
Format/Info                 : Advanced Audio Codec
Format profile              : LC
Codec ID                    : A_AAC
Duration                    : 2 h 6 min
Bit rate                    : 112 kb/s
Channel(s)                  : 2 channels
Channel positions           : Front: L R
Sampling rate               : 48.0 kHz
Frame rate                  : 46.875 FPS (1024 SPF)
Compression mode            : Lossy
Delay relative to video     : -5 ms
Stream size                 : 101 MiB (7%)
Language                    : English
Default                     : Yes
Forced                      : No


Ankarajyathe Jimmanmar (2018) Malayalam - 1.37GB - 1/3DVDRip - x264 - AAC5.1-MTRAnkarajyathe Jimmanmar (2018) Malayalam - 1.37GB - 1/3DVDRip - x264 - AAC5.1-MTRAnkarajyathe Jimmanmar (2018) Malayalam - 1.37GB - 1/3DVDRip - x264 - AAC5.1-MTRAnkarajyathe Jimmanmar (2018) Malayalam - 1.37GB - 1/3DVDRip - x264 - AAC5.1-MTRAnkarajyathe Jimmanmar (2018) Malayalam - 1.37GB - 1/3DVDRip - x264 - AAC5.1-MTR
SINGLE DIRECT FAST LINKS


http://www.heroupload.us/2117bbf1f3218c30/Ankarajyathe.Jimmanmar.2018.Malayalam.Org.DVDRip.x264.AAC.5.1-MTR.mkv



http://filefloater.com/1jcN/Ankarajyathe.Jimmanmar.2018.Malayalam.Org.DVDRip.x264.AAC.5.1-MTR.mkv




Теги: Ankarajyathe

Dear visitor, you are browsing our website as Guest.
We strongly recommend you to register and login to view hidden contents.

Comments:

Add Comments
Reply
  • Group: Members
  • ICQ: 187681562
  • Registration: 23.05.2018
  • Status: Currently Offline
  • 8 Comment
  • 0 Article
^
Приветствую)

Хочу рассказать вам о из статьи вы узнаете, как заработать деньги в интернете новичку, реален ли заработок в сети без вложений и обмана, какие сайты для заработка самые лучшие как написать рецензию на статью по педагогике образец сегодня я буду рассказывать Вам о том, как заработать в интернете новичку с нуля 1000$ в месяц и более. На сегодняшний день я вышел на такой уровень дохода, да и сам когда-то я был новичком в свое время, поэтому я, как считаю, имею право написать такой урок.

--------------------
Reply
  • Group: Guests
  • ICQ:
  • Registration: --
  • Status:
  • 0 Comment
  • 0 Article
^
viagra 100mg filmtabletten nebenwirkungen
<a href="https://howviagrawithoutdoctorprescription.com/">viagra without doctor prescription</a>
viagra online cheap uk
viagra without doctor
can take half viagra pill
<a href="https://gettingviagrawithoutdoctorprescriptionfast.com/">viag
ra without a doctor prescription usa</a>
is it illegal to buy viagra from craigslist
generic viagra without a doctor prescription
generic viagra in australia
Reply
  • Group: Guests
  • ICQ:
  • Registration: --
  • Status:
  • 0 Comment
  • 0 Article
^
You Have Problems in getting the required scores in Ielts,Toefl, Pte, Esol, Toiec, Oet, Gmat, Gre, Nebosh, SAT, PRETENCE, GED, Usmle, Psat, lsat, Celban, FCE, CAE,CPE, BEC, Fle, Tesol,???
Call for Ielts certificate urgently in Australia, Saudi Arabia, Oman, Lebanon, Qatar, Canada, India, Dubai, Iran, Pakistan, Belarus, Kuwait, Germany, France, Egypt, Russia, Malaysia, UAE, Jordan, Yemen, Iraq, China, Canada, UK, USA, Unripe Zealand,cours bitcoin en temps réel Anywhere… From British ministry or IDP licensed without taking the test?
Reply
  • Group: Guests
  • ICQ:
  • Registration: --
  • Status:
  • 0 Comment
  • 0 Article
^
vaigra
viagra without a doctor prescription viagra dosage 30 mg vbulletin solutions
<a href="http://viagrawithoutdoctorus.net">viagra without a doctor prescription</a> - viagra dosage when to take forum contains new posts
viagra 10 pills x 20 mg
Reply
  • Group: Guests
  • ICQ:
  • Registration: --
  • Status:
  • 0 Comment
  • 0 Article
^
soft tab viagra
viagra for sale buy generic viagra viagra online
<a href="http://xlviagracan.com">viagra for sale</a> - viagra fiyatA±
over counter viagra
Reply
  • Group: Guests
  • ICQ:
  • Registration: --
  • Status:
  • 0 Comment
  • 0 Article
^
levitra from canada no new posts
levitra 20mg
levitra dosage levitra vs levitra e_sign.asp
<a href="http://levitragls.com">levitra 20 mg price
</a> - levitra buy jump to
information about levitra

levitra or levitra
levitra 20 mg generic
with generic levitra pill
<a href="http://levitragtr.com">levitra 20 mg
</a> - does levitra work with alcohol gstbk_add.php?sid=
levitra 10 mg 4 tablet total posts