Set as default Homepage|Bookmark
 
 
» » Aadhi (2018) Malayalam - 720p - DVDRip - x264 - AAC - ESub-TMV
Advertise

Aadhi (2018) Malayalam - 720p - DVDRip - x264 - AAC - ESub-TMV

Author: wroser on 11-05-2018, 11:08
Aadhi (2018) Malayalam - 720p - DVDRip - x264 - AAC - ESub-TMV





General
Format                      : Matroska
Format version              : Version 4 / Version 2
File size                   : 1.36 GiB
Duration                    : 2 h 37 min
Overall bit rate            : 1 235 kb/s
Encoded date                : UTC 2018-05-10 15:55:44
Writing application         : mkvmerge v7.1.0 ('Good Love') 32bit built on Jul 27 2014 12:59:18
Writing library             : libebml v1.3.0 + libmatroska v1.4.1

Video
ID                          : 1
Format                      : AVC
Format/Info                 : Advanced Video Codec
Format profile              : Main@L3.1
Format settings, CABAC      : Yes
Format settings, RefFrames  : 4 frames
Codec ID                    : V_MPEG4/ISO/AVC
Duration                    : 2 h 37 min
Bit rate                    : 1 107 kb/s
Width                       : 1 280 pixels
Height                      : 544 pixels
Display aspect ratio        : 2.35:1
Frame rate mode             : Constant
Frame rate                  : 30.000 FPS
Color space                 : YUV
Chroma subsampling          : 4:2:0
Bit depth                   : 8 bits
Scan type                   : Progressive
Bits/(Pixel*Frame)          : 0.053
Stream size                 : 1.22 GiB (89%)
Writing library             : x264 core 112
Encoding settings           : cabac=1 / ref=2 / deblock=1:0:0 / analyse=0x1:0x111 / me=hex / subme=6 / psy=1 / psy_rd=1.00:0.00 / mixed_ref=0 / me_range=16 / chroma_me=1 / trellis=0 / 8x8dct=0 / cqm=0 / deadzone=21,11 / fast_pskip=1 / chroma_qp_offset=-2 / threads=12 / sliced_threads=0 / nr=0 / decimate=1 / interlaced=0 / constrained_intra=0 / bframes=2 / b_pyramid=2 / b_adapt=1 / b_bias=0 / direct=1 / weightb=0 / open_gop=0 / weightp=2 / keyint=300 / keyint_min=30 / scenecut=40 / intra_refresh=0 / rc_lookahead=40 / rc=abr / mbtree=1 / bitrate=1107 / ratetol=1.0 / qcomp=0.60 / qpmin=3 / qpmax=51 / qpstep=4 / ip_ratio=1.40 / aq=1:1.00
Language                    : Malayalam
Default                     : Yes
Forced                      : No
Color range                 : Limited
Color primaries             : BT.709
Transfer characteristics    : BT.709
Matrix coefficients         : BT.709

Audio
ID                          : 2
Format                      : AAC
Format/Info                 : Advanced Audio Codec
Format profile              : LC
Codec ID                    : A_AAC
Duration                    : 2 h 37 min
Bit rate                    : 128 kb/s
Channel(s)                  : 2 channels
Channel positions           : Front: L R
Sampling rate               : 44.1 kHz
Frame rate                  : 43.066 FPS (1024 SPF)
Compression mode            : Lossy
Stream size                 : 145 MiB (10%)
Language                    : Malayalam
Default                     : Yes
Forced                      : No

Text
ID                          : 3
Format                      : UTF-8
Codec ID                    : S_TEXT/UTF8
Codec ID/Info               : UTF-8 Plain Text
Duration                    : 2 h 30 min
Bit rate                    : 60 b/s
Count of elements           : 2227
Stream size                 : 66.9 KiB (0%)
Language                    : English
Default                     : Yes
Forced                      : No



Aadhi (2018) Malayalam - 720p - DVDRip - x264 - AAC - ESub-TMVAadhi (2018) Malayalam - 720p - DVDRip - x264 - AAC - ESub-TMVAadhi (2018) Malayalam - 720p - DVDRip - x264 - AAC - ESub-TMVAadhi (2018) Malayalam - 720p - DVDRip - x264 - AAC - ESub-TMV


SINGLE DIRECT FAST LINKS
http://www.heroupload.us/08787a3b0fb59b22/Aadhi.2018.Malayalam.DVDRip.720p.x264.AAC.ESub-TMV.mkv


http://filefloater.com/1j3v/Aadhi.2018.Malayalam.DVDRip.720p.x264.AAC.ESub-TMV.mkv




Теги: Aadhi

Dear visitor, you are browsing our website as Guest.
We strongly recommend you to register and login to view hidden contents.

Comments:

Add Comments