Set as default Homepage|Bookmark
 
 
» » Vikadakumaran (2018) Malayalam - 720p - DVDRip - x264 - DD5.1 - ESub-TMV
Advertise

Vikadakumaran (2018) Malayalam - 720p - DVDRip - x264 - DD5.1 - ESub-TMV

Author: wroser on 11-05-2018, 11:04
Vikadakumaran (2018) Malayalam - 720p - DVDRip - x264 - DD5.1 - ESub-TMV





General
Format                      : Matroska
Format version              : Version 4 / Version 2
File size                   : 1.19 GiB
Duration                    : 2 h 10 min
Overall bit rate            : 1 298 kb/s
Encoded date                : UTC 2018-05-08 10:23:57
Writing application         : mkvmerge v7.1.0 ('Good Love') 32bit built on Jul 27 2014 12:59:18
Writing library             : libebml v1.3.0 + libmatroska v1.4.1

Video
ID                          : 1
Format                      : AVC
Format/Info                 : Advanced Video Codec
Format profile              : High@L3.1
Format settings, CABAC      : Yes
Format settings, RefFrames  : 4 frames
Codec ID                    : V_MPEG4/ISO/AVC
Duration                    : 2 h 10 min
Bit rate                    : 1 168 kb/s
Width                       : 1 280 pixels
Height                      : 520 pixels
Display aspect ratio        : 2.462
Frame rate mode             : Constant
Frame rate                  : 23.976 (24000/1001) FPS
Color space                 : YUV
Chroma subsampling          : 4:2:0
Bit depth                   : 8 bits
Scan type                   : Progressive
Bits/(Pixel*Frame)          : 0.073
Stream size                 : 1.07 GiB (90%)
Writing library             : x264 core 155 r2901 7d0ff22
Encoding settings           : cabac=1 / ref=3 / deblock=1:0:0 / analyse=0x3:0x113 / me=hex / subme=7 / psy=1 / psy_rd=1.00:0.00 / mixed_ref=1 / me_range=16 / chroma_me=1 / trellis=1 / 8x8dct=1 / cqm=0 / deadzone=21,11 / fast_pskip=1 / chroma_qp_offset=-2 / threads=16 / lookahead_threads=2 / sliced_threads=0 / nr=0 / decimate=1 / interlaced=0 / bluray_compat=0 / constrained_intra=0 / bframes=3 / b_pyramid=2 / b_adapt=1 / b_bias=0 / direct=1 / weightb=1 / open_gop=0 / weightp=2 / keyint=240 / keyint_min=23 / scenecut=40 / intra_refresh=0 / rc_lookahead=40 / rc=2pass / mbtree=1 / bitrate=1168 / ratetol=1.0 / qcomp=0.60 / qpmin=0 / qpmax=69 / qpstep=4 / cplxblur=20.0 / qblur=0.5 / ip_ratio=1.40 / aq=1:1.00
Language                    : Malayalam
Default                     : Yes
Forced                      : No

Audio
ID                          : 2
Format                      : AC-3
Format/Info                 : Audio Coding 3
Format settings, Endianness : Big
Codec ID                    : A_AC3
Duration                    : 2 h 10 min
Bit rate mode               : Constant
Bit rate                    : 128 kb/s
Channel(s)                  : 6 channels
Channel positions           : Front: L C R, Side: L R, LFE
Sampling rate               : 44.1 kHz
Frame rate                  : 28.711 FPS (1536 SPF)
Bit depth                   : 16 bits
Compression mode            : Lossy
Stream size                 : 120 MiB (10%)
Language                    : Malayalam
Service kind                : Complete Main
Default                     : Yes
Forced                      : No

Text
ID                          : 3
Format                      : UTF-8
Codec ID                    : S_TEXT/UTF8
Codec ID/Info               : UTF-8 Plain Text
Duration                    : 2 h 7 min
Bit rate                    : 78 b/s
Count of elements           : 2109
Stream size                 : 73.0 KiB (0%)
Language                    : English
Default                     : Yes
Forced                      : No




Vikadakumaran (2018) Malayalam - 720p - DVDRip - x264 - DD5.1 - ESub-TMVVikadakumaran (2018) Malayalam - 720p - DVDRip - x264 - DD5.1 - ESub-TMVVikadakumaran (2018) Malayalam - 720p - DVDRip - x264 - DD5.1 - ESub-TMVVikadakumaran (2018) Malayalam - 720p - DVDRip - x264 - DD5.1 - ESub-TMV


SINGLE DIRECT FAST LINKS

http://www.heroupload.us/f29a764a822b20d9/Vikadakumaran.2018.Malayalam.Org.DVDRip.720p.x264.5.1.ESub-TMV.mkv



http://filefloater.com/1j3R/Vikadakumaran.2018.Malayalam.Org.DVDRip.720p.x264.5.1.ESub-TMV.mkv




Теги: Vikadakumaran

Dear visitor, you are browsing our website as Guest.
We strongly recommend you to register and login to view hidden contents.

Comments:

Add Comments