Set as default Homepage|Bookmark
 
 
» » Carbon (2018) Malayalam - 700MB - 1CDRip - DVDRip - x264 - AAC - ESub-TMV
Advertise

Carbon (2018) Malayalam - 700MB - 1CDRip - DVDRip - x264 - AAC - ESub-TMV

Author: wroser on 28-04-2018, 04:34
Carbon (2018) Malayalam - 700MB - 1CDRip - DVDRip - x264 - AAC - ESub-TMV




General
Format                      : Matroska
Format version              : Version 4 / Version 2
File size                   : 700 MiB
Duration                    : 2 h 25 min
Overall bit rate            : 674 kb/s
Encoded date                : UTC 2018-04-27 11:13:51
Writing application         : mkvmerge v7.1.0 ('Good Love') 32bit built on Jul 27 2014 12:59:18
Writing library             : libebml v1.3.0 + libmatroska v1.4.1

Video
ID                          : 1
Format                      : AVC
Format/Info                 : Advanced Video Codec
Format profile              : Main@L3
Format settings, CABAC      : Yes
Format settings, RefFrames  : 4 frames
Codec ID                    : V_MPEG4/ISO/AVC
Duration                    : 2 h 25 min
Bit rate                    : 542 kb/s
Width                       : 720 pixels
Height                      : 304 pixels
Display aspect ratio        : 2.35:1
Frame rate mode             : Constant
Frame rate                  : 29.970 (30000/1001) FPS
Color space                 : YUV
Chroma subsampling          : 4:2:0
Bit depth                   : 8 bits
Scan type                   : Progressive
Bits/(Pixel*Frame)          : 0.083
Stream size                 : 564 MiB (81%)
Writing library             : x264 core 112
Encoding settings           : cabac=1 / ref=2 / deblock=1:0:0 / analyse=0x1:0x111 / me=hex / subme=6 / psy=1 / psy_rd=1.00:0.00 / mixed_ref=0 / me_range=16 / chroma_me=1 / trellis=0 / 8x8dct=0 / cqm=0 / deadzone=21,11 / fast_pskip=1 / chroma_qp_offset=-2 / threads=12 / sliced_threads=0 / nr=0 / decimate=1 / interlaced=0 / constrained_intra=0 / bframes=2 / b_pyramid=2 / b_adapt=1 / b_bias=0 / direct=1 / weightb=0 / open_gop=0 / weightp=2 / keyint=300 / keyint_min=29 / scenecut=40 / intra_refresh=0 / rc_lookahead=40 / rc=abr / mbtree=1 / bitrate=542 / ratetol=1.0 / qcomp=0.60 / qpmin=3 / qpmax=51 / qpstep=4 / ip_ratio=1.40 / aq=1:1.00
Language                    : Malayalam
Default                     : Yes
Forced                      : No
Color range                 : Limited
Color primaries             : BT.601 NTSC
Transfer characteristics    : BT.709
Matrix coefficients         : BT.601

Audio
ID                          : 2
Format                      : AAC
Format/Info                 : Advanced Audio Codec
Format profile              : LC
Codec ID                    : A_AAC
Duration                    : 2 h 25 min
Bit rate                    : 128 kb/s
Channel(s)                  : 2 channels
Channel positions           : Front: L R
Sampling rate               : 48.0 kHz
Frame rate                  : 46.875 FPS (1024 SPF)
Compression mode            : Lossy
Stream size                 : 133 MiB (19%)
Language                    : Malayalam
Default                     : Yes
Forced                      : No

Text
ID                          : 3
Format                      : UTF-8
Codec ID                    : S_TEXT/UTF8
Codec ID/Info               : UTF-8 Plain Text
Duration                    : 2 h 16 min
Bit rate                    : 48 b/s
Count of elements           : 1292
Stream size                 : 48.3 KiB (0%)
Language                    : English
Default                     : Yes
Forced                      : No




Carbon (2018) Malayalam - 700MB - 1CDRip - DVDRip - x264 - AAC - ESub-TMVCarbon (2018) Malayalam - 700MB - 1CDRip - DVDRip - x264 - AAC - ESub-TMVCarbon (2018) Malayalam - 700MB - 1CDRip - DVDRip - x264 - AAC - ESub-TMVCarbon (2018) Malayalam - 700MB - 1CDRip - DVDRip - x264 - AAC - ESub-TMVCarbon (2018) Malayalam - 700MB - 1CDRip - DVDRip - x264 - AAC - ESub-TMV


SINGLE DIRECT FAST LINKS

http://www.heroupload.us/590fa9d06fa00c46/Carbon.2018.Malayalam.Original.DVDRip.700MB.x264.1CD.AAC.ESub-TMV.mkv



http://filefloater.com/1iQF/Carbon.2018.Malayalam.Original.DVDRip.700MB.x264.1CD.AAC.ESub-TMV.mkv




Теги: Carbon

Dear visitor, you are browsing our website as Guest.
We strongly recommend you to register and login to view hidden contents.

Comments:

Add Comments