Set as default Homepage|Bookmark
 
 
» » Welcome Back (2015) 720p - BluRay - x264 - DD5.1-NhaNc3
Advertise

Welcome Back (2015) 720p - BluRay - x264 - DD5.1-NhaNc3

Author: wroser on 23-07-2018, 23:27
Welcome Back (2015) 720p - BluRay - x264 - DD5.1-NhaNc3



Format                      : Matroska
Format version              : Version 2
File size                   : 2.92 GiB
Duration                    : 2 h 29 min
Overall bit rate            : 2 800 kb/s
Encoded date                : UTC 2016-02-18 21:36:06
Writing application         : mkvmerge v4.9.1 ('Ich will') built on Jul 11 2011 23:53:15
Writing library             : libebml v1.2.1 + libmatroska v1.1.1

Video
ID                          : 1
Format                      : AVC
Format/Info                 : Advanced Video Codec
Format profile              : High@L4.1
Format settings, CABAC      : Yes
Format settings, RefFrames  : 8 frames
Codec ID                    : V_MPEG4/ISO/AVC
Duration                    : 2 h 29 min
Bit rate                    : 2 421 kb/s
Width                       : 1 280 pixels
Height                      : 544 pixels
Display aspect ratio        : 2.35:1
Frame rate mode             : Constant
Frame rate                  : 24.000 FPS
Color space                 : YUV
Chroma subsampling          : 4:2:0
Bit depth                   : 8 bits
Scan type                   : Progressive
Bits/(Pixel*Frame)          : 0.145
Stream size                 : 2.46 GiB (84%)
Writing library             : x264 core 146 r2538 121396c
Encoding settings           : cabac=1 / ref=8 / deblock=1:0:0 / analyse=0x3:0x113 / me=umh / subme=9 / psy=1 / psy_rd=1.00:0.00 / mixed_ref=1 / me_range=16 / chroma_me=1 / trellis=1 / 8x8dct=1 / cqm=0 / deadzone=21,11 / fast_pskip=1 / chroma_qp_offset=-2 / threads=8 / lookahead_threads=1 / sliced_threads=0 / nr=0 / decimate=1 / interlaced=0 / bluray_compat=0 / constrained_intra=0 / bframes=5 / b_pyramid=2 / b_adapt=1 / b_bias=0 / direct=1 / weightb=1 / open_gop=0 / weightp=2 / keyint=250 / keyint_min=24 / scenecut=40 / intra_refresh=0 / rc_lookahead=40 / rc=2pass / mbtree=1 / bitrate=2421 / ratetol=1.0 / qcomp=0.60 / qpmin=0 / qpmax=69 / qpstep=4 / cplxblur=20.0 / qblur=0.5 / vbv_maxrate=20000 / vbv_bufsize=15000 / nal_hrd=none / filler=0 / ip_ratio=1.40 / aq=1:1.00
Language                    : English
Default                     : Yes
Forced                      : No
Color range                 : Limited
Color primaries             : BT.709
Transfer characteristics    : BT.709
Matrix coefficients         : BT.709

Audio
ID                          : 2
Format                      : AC-3
Format/Info                 : Audio Coding 3
Format settings, Endianness : Big
Codec ID                    : A_AC3
Duration                    : 2 h 29 min
Bit rate mode               : Constant
Bit rate                    : 384 kb/s
Channel(s)                  : 6 channels
Channel positions           : Front: L C R, Side: L R, LFE
Sampling rate               : 48.0 kHz
Frame rate                  : 31.250 FPS (1536 SPF)
Bit depth                   : 16 bits
Compression mode            : Lossy
Stream size                 : 411 MiB (14%)
Language                    : English
Service kind                : Complete Main
Default                     : Yes
Forced                      : Yes

Text #1
ID                          : 3
Format                      : UTF-8
Codec ID                    : S_TEXT/UTF8
Codec ID/Info               : UTF-8 Plain Text
Title                       : DDR
Language                    : English
Default                     : Yes
Forced                      : No
Statistics Tags Issue       : mkvmerge v8.5.2 ('Crosses') 32bit 2016-01-07 17:08:39 / mkvmerge v4.9.1 ('Ich will') built on Jul 11 2011 23:53:15 2016-02-18 21:36:06
FromStats_BitRate           : 67
FromStats_Duration          : 02:27:06.982000000
FromStats_FrameCount        : 2432
FromStats_StreamSize        : 74466

Text #2
ID                          : 4
Format                      : UTF-8
Codec ID                    : S_TEXT/UTF8
Codec ID/Info               : UTF-8 Plain Text
Title                       : DDR
Language                    : Arabic
Default                     : No
Forced                      : No
Statistics Tags Issue       : mkvmerge v8.5.2 ('Crosses') 32bit 2016-01-07 17:08:39 / mkvmerge v4.9.1 ('Ich will') built on Jul 11 2011 23:53:15 2016-02-18 21:36:06
FromStats_BitRate           : 93
FromStats_Duration          : 02:27:06.774000000
FromStats_FrameCount        : 2430
FromStats_StreamSize        : 102930

Menu
00:00:00.000                : en:C.C. / Titles
00:04:09.667                : en:An Introduction
00:10:13.167                : en:Poonam's Plan
00:11:10.375                : en:Meet Me Daily Baby...
00:17:50.500                : en:Ranjhana, Uday's Sister
00:20:26.708                : en:Dr. Ghunghroo
00:26:38.000                : en:Twenty Twenty
00:30:29.042                : en:Ajju Bhai
00:38:09.000                : en:First Meeting
00:43:02.667                : en:Misunderstanding
00:49:51.750                : en:Time Lagaye Kaiko...
00:52:44.333                : en:Ajju As Ajay
01:03:44.792                : en:Ajay's Reality Revealed
01:19:43.667                : en:Wanted Bhai
01:22:38.792                : en:Attempt To Suicide
01:25:08.833                : en:Friends
01:28:59.375                : en:Tutti Bole Wedding Di...
01:35:40.333                : en:Heart Attack Drama
01:39:58.250                : en:Blackmail
01:48:00.000                : en:Plan To Kill Ajju Bhai
01:57:56.000                : en:Nas Nas Mein...
02:01:52.792                : en:Honey Kidapped
02:12:43.458                : en:Climax
02:26:17.292                : en:End Credits / Welcome Back...



Welcome Back (2015) 720p - BluRay - x264 - DD5.1-NhaNc3

SINGLE DIRECT FAST LINKS

http://www.heroupload.us/31cbd742d1eaf5cf/Welcome.Back.2015.720p.BluRay.nHD.x264-NhaNc3.mkv



http://filefloater.com/1JN8/Welcome.Back.2015.720p.BluRay.nHD.x264-NhaNc3.mkv



Buy Premium From My Links & Support Me

Теги: Welcome

Dear visitor, you are browsing our website as Guest.
We strongly recommend you to register and login to view hidden contents.

Comments:

Add Comments