Set as default Homepage|Bookmark
 
 
» » Wazir (2016) 720p - BluRay - x264 - DD5.1-NhaNc3
Advertise

Wazir (2016) 720p - BluRay - x264 - DD5.1-NhaNc3

Author: wroser on 23-07-2018, 23:25
Wazir (2016) 720p - BluRay - x264 - DD5.1-NhaNc3



Format                      : Matroska
Format version              : Version 2
File size                   : 2.05 GiB
Duration                    : 1 h 44 min
Overall bit rate            : 2 820 kb/s
Encoded date                : UTC 2016-07-05 02:44:25
Writing application         : mkvmerge v4.9.1 ('Ich will') built on Jul 11 2011 23:53:15
Writing library             : libebml v1.2.1 + libmatroska v1.1.1

Video
ID                          : 1
Format                      : AVC
Format/Info                 : Advanced Video Codec
Format profile              : High@L4.1
Format settings, CABAC      : Yes
Format settings, RefFrames  : 8 frames
Codec ID                    : V_MPEG4/ISO/AVC
Duration                    : 1 h 44 min
Bit rate                    : 2 435 kb/s
Width                       : 1 280 pixels
Height                      : 544 pixels
Display aspect ratio        : 2.35:1
Frame rate mode             : Constant
Frame rate                  : 24.000 FPS
Color space                 : YUV
Chroma subsampling          : 4:2:0
Bit depth                   : 8 bits
Scan type                   : Progressive
Bits/(Pixel*Frame)          : 0.146
Stream size                 : 1.73 GiB (84%)
Writing library             : x264 core 146 r2538 121396c
Encoding settings           : cabac=1 / ref=8 / deblock=1:0:0 / analyse=0x3:0x113 / me=umh / subme=9 / psy=1 / psy_rd=1.00:0.00 / mixed_ref=1 / me_range=16 / chroma_me=1 / trellis=1 / 8x8dct=1 / cqm=0 / deadzone=21,11 / fast_pskip=1 / chroma_qp_offset=-2 / threads=8 / lookahead_threads=1 / sliced_threads=0 / nr=0 / decimate=1 / interlaced=0 / bluray_compat=0 / constrained_intra=0 / bframes=5 / b_pyramid=2 / b_adapt=1 / b_bias=0 / direct=1 / weightb=1 / open_gop=0 / weightp=2 / keyint=250 / keyint_min=24 / scenecut=40 / intra_refresh=0 / rc_lookahead=40 / rc=2pass / mbtree=1 / bitrate=2435 / ratetol=1.0 / qcomp=0.60 / qpmin=0 / qpmax=69 / qpstep=4 / cplxblur=20.0 / qblur=0.5 / vbv_maxrate=20000 / vbv_bufsize=15000 / nal_hrd=none / filler=0 / ip_ratio=1.40 / aq=1:1.00
Language                    : English
Default                     : Yes
Forced                      : No
Color range                 : Limited
Color primaries             : BT.709
Transfer characteristics    : BT.709
Matrix coefficients         : BT.709

Audio
ID                          : 2
Format                      : AC-3
Format/Info                 : Audio Coding 3
Format settings, Endianness : Big
Codec ID                    : A_AC3
Duration                    : 1 h 44 min
Bit rate mode               : Constant
Bit rate                    : 384 kb/s
Channel(s)                  : 6 channels
Channel positions           : Front: L C R, Side: L R, LFE
Sampling rate               : 48.0 kHz
Frame rate                  : 31.250 FPS (1536 SPF)
Bit depth                   : 16 bits
Compression mode            : Lossy
Stream size                 : 286 MiB (14%)
Language                    : English
Service kind                : Complete Main
Default                     : Yes
Forced                      : Yes

Menu
00:00:00.000                : en:00:00:00.000
00:02:55.833                : en:00:02:55.833
00:06:09.250                : en:00:06:09.250
00:20:08.708                : en:00:20:08.708
00:24:05.083                : en:00:24:05.083
00:26:23.416                : en:00:26:23.416
00:28:16.166                : en:00:28:16.166
00:35:51.000                : en:00:35:51.000
00:36:53.041                : en:00:36:53.041
00:40:28.791                : en:00:40:28.791
00:51:57.166                : en:00:51:57.166
00:55:50.291                : en:00:55:50.291
01:00:01.958                : en:01:00:01.958
01:07:25.666                : en:01:07:25.666
01:08:40.208                : en:01:08:40.208
01:13:01.250                : en:01:13:01.250
01:15:18.708                : en:01:15:18.708
01:18:51.166                : en:01:18:51.166
01:26:51.375                : en:01:26:51.375
01:31:03.458                : en:01:31:03.458
01:40:13.416                : en:01:40:13.416


Wazir (2016) 720p - BluRay - x264 - DD5.1-NhaNc3


SINGLE DIRECT FAST LINKS

http://www.heroupload.us/1790fa9bfe89c2d1/Wazir.2015.720p.BluRay.nHD.x264-NhaNc3.mkv.mkv



http://filefloater.com/1JO4/Wazir.2015.720p.BluRay.nHD.x264-NhaNc3.mkv.mkv



Buy Premium From My Links & Support Me

Теги: Wazir

Dear visitor, you are browsing our website as Guest.
We strongly recommend you to register and login to view hidden contents.

Comments:

Add Comments