Set as default Homepage|Bookmark
 
 
» » Vikram Vedha (2018) Hindi - 1080p - WEB HD - AVC - AAC-GM Exclusive
Advertise

Vikram Vedha (2018) Hindi - 1080p - WEB HD - AVC - AAC-GM Exclusive

Author: wroser on 10-06-2018, 21:10
Vikram Vedha (2018) Hindi - 1080p - WEB HD - AVC - AAC-GM Exclusive






General
Format                      : MPEG-4
Format profile              : Base Media
Codec ID                    : isom (isom/iso2/avc1/mp41)
File size                   : 2.46 GiB
Duration                    : 2 h 10 min
Overall bit rate            : 2 707 kb/s
Writing application         : Lavf56.40.101

Video
ID                          : 1
Format                      : AVC
Format/Info                 : Advanced Video Codec
Format profile              : High@L4
Format settings, CABAC      : Yes
Format settings, RefFrames  : 2 frames
Codec ID                    : avc1
Codec ID/Info               : Advanced Video Coding
Duration                    : 2 h 10 min
Duration_FirstFrame         : -40 ms
Bit rate                    : 2 575 kb/s
Width                       : 1 920 pixels
Height                      : 1 080 pixels
Display aspect ratio        : 16:9
Frame rate mode             : Variable
Frame rate                  : 25.000 FPS
Minimum frame rate          : 25.000 FPS
Maximum frame rate          : 25.014 FPS
Color space                 : YUV
Chroma subsampling          : 4:2:0
Bit depth                   : 8 bits
Scan type                   : Progressive
Bits/(Pixel*Frame)          : 0.050
Stream size                 : 2.34 GiB (95%)
Color range                 : Limited
Color primaries             : BT.709
Transfer characteristics    : BT.709
Matrix coefficients         : BT.709

Audio
ID                          : 2
Format                      : AAC
Format/Info                 : Advanced Audio Codec
Format profile              : LC
Codec ID                    : 40
Duration                    : 2 h 10 min
Bit rate mode               : Constant
Bit rate                    : 126 kb/s
Channel(s)                  : 2 channels
Channel positions           : Front: L R
Sampling rate               : 44.1 kHz
Frame rate                  : 43.066 FPS (1024 SPF)
Compression mode            : Lossy
Stream size                 : 117 MiB (5%)
Default                     : Yes
Alternate group             : 1



Vikram Vedha (2018) Hindi - 1080p - WEB HD - AVC - AAC-GM Exclusive
Vikram Vedha (2018) Hindi - 1080p - WEB HD - AVC - AAC-GM Exclusive
Vikram Vedha (2018) Hindi - 1080p - WEB HD - AVC - AAC-GM Exclusive
Vikram Vedha (2018) Hindi - 1080p - WEB HD - AVC - AAC-GM Exclusive
Vikram Vedha (2018) Hindi - 1080p - WEB HD - AVC - AAC-GM Exclusive


SINGLE DIRECT FAST LINKS
http://www.heroupload.us/0f360b2664b0e0b9/Vikram.Vedha.2018.Hindi.1080P.UntoucheD.WEB-HD.AVC.AAC-GM.Exclusive.mp4


http://filefloater.com/Tni/Vikram.Vedha.2018.Hindi.1080P.UntoucheD.WEB-HD.AVC.AAC-GM.Exclusive.mp4

700MB LINKS

http://www.heroupload.us/5b239762a796e376/Vikram.Vedha.2018.Hindi.1080P.UntoucheD.WEB-HD.AVC.AAC-GM.Exclusive.part1.rar
http://www.heroupload.us/7c4377d0007c4d85/Vikram.Vedha.2018.Hindi.1080P.UntoucheD.WEB-HD.AVC.AAC-GM.Exclusive.part2.rar
http://www.heroupload.us/fce7b2184fe63dad/Vikram.Vedha.2018.Hindi.1080P.UntoucheD.WEB-HD.AVC.AAC-GM.Exclusive.part3.rar
http://www.heroupload.us/dbfe466445881be5/Vikram.Vedha.2018.Hindi.1080P.UntoucheD.WEB-HD.AVC.AAC-GM.Exclusive.part4.rar



http://filefloater.com/Tnj/Vikram.Vedha.2018.Hindi.1080P.UntoucheD.WEB-HD.AVC.AAC-GM.Exclusive.part1.rar
http://filefloater.com/Tnk/Vikram.Vedha.2018.Hindi.1080P.UntoucheD.WEB-HD.AVC.AAC-GM.Exclusive.part2.rar
http://filefloater.com/Tnl/Vikram.Vedha.2018.Hindi.1080P.UntoucheD.WEB-HD.AVC.AAC-GM.Exclusive.part3.rar
http://filefloater.com/Tnm/Vikram.Vedha.2018.Hindi.1080P.UntoucheD.WEB-HD.AVC.AAC-GM.Exclusive.part4.rar




Теги: Vikram

Dear visitor, you are browsing our website as Guest.
We strongly recommend you to register and login to view hidden contents.

Comments:

Add Comments
Reply
  • Group: Guests
  • ICQ:
  • Registration: --
  • Status:
  • 0 Comment
  • 0 Article
^
Народ кто хочет играть в современные игры на высоких настройках с динамичными теняими
даже на самых слабых ПК или ноутах. Без лагов и фризов (Но нужен более менее нормальный инет).
Читайте статья по настройке компа здесь.
Видео по установке и настройке смотрите тут.
Играю уже пол года на ведре 2005 г. Буду рад кому помог разорить буржуев игровой индустрии!!!
Reply
  • Group: Guests
  • ICQ:
  • Registration: --
  • Status:
  • 0 Comment
  • 0 Article
^
Русь едина и непобедима

-----


смотреть сериалы 2018 онлайн

-----

Дайте мне совет

-----


как войти в личный кабинет триколор тв

-----

Мы не знали об этом

-----


7600

-----