Set as default Homepage|Bookmark
 
 
» » Vikram Vedha (2018) Hindi - 720p - WEB HD - AVC - AAC-GM Exclusive
Advertise

Vikram Vedha (2018) Hindi - 720p - WEB HD - AVC - AAC-GM Exclusive

Author: wroser on 10-06-2018, 21:07
Vikram Vedha (2018) Hindi - 720p - WEB HD - AVC - AAC-GM Exclusive





General
Format                      : MPEG-4
Format profile              : Base Media / Version 2
Codec ID                    : mp42 (isom/mp42)
File size                   : 1 018 MiB
Duration                    : 2 h 10 min
Overall bit rate mode       : Variable
Overall bit rate            : 1 093 kb/s
Encoded date                : UTC 2018-06-08 12:11:58
Tagged date                 : UTC 2018-06-08 12:11:58
gsst                        : 0
gstd                        : 7816626

Video
ID                          : 1
Format                      : AVC
Format/Info                 : Advanced Video Codec
Format profile              : Main@L3.1
Format settings, CABAC      : Yes
Format settings, RefFrames  : 3 frames
Codec ID                    : avc1
Codec ID/Info               : Advanced Video Coding
Duration                    : 2 h 10 min
Bit rate                    : 964 kb/s
Width                       : 1 280 pixels
Height                      : 720 pixels
Display aspect ratio        : 16:9
Frame rate mode             : Constant
Frame rate                  : 25.000 FPS
Color space                 : YUV
Chroma subsampling          : 4:2:0
Bit depth                   : 8 bits
Scan type                   : Progressive
Bits/(Pixel*Frame)          : 0.042
Stream size                 : 898 MiB (88%)
Title                       : ISO Media file produced by Google Inc. Created on: 06/08/2018.
Encoded date                : UTC 2018-06-08 12:11:58
Tagged date                 : UTC 2018-06-08 12:11:58
Color range                 : Limited
Color primaries             : BT.709
Transfer characteristics    : BT.709
Matrix coefficients         : BT.709

Audio
ID                          : 2
Format                      : AAC
Format/Info                 : Advanced Audio Codec
Format profile              : LC
Codec ID                    : 40
Duration                    : 2 h 10 min
Bit rate mode               : Variable
Bit rate                    : 126 kb/s
Channel(s)                  : 2 channels
Channel positions           : Front: L R
Sampling rate               : 44.1 kHz
Frame rate                  : 43.066 FPS (1024 SPF)
Compression mode            : Lossy
Stream size                 : 117 MiB (11%)
Title                       : ISO Media file produced by Google Inc. Created on: 06/08/2018.
Language                    : English
Encoded date                : UTC 2018-06-08 12:11:58
Tagged date                 : UTC 2018-06-08 12:11:58



Vikram Vedha (2018) Hindi - 720p - WEB HD - AVC - AAC-GM ExclusiveVikram Vedha (2018) Hindi - 720p - WEB HD - AVC - AAC-GM ExclusiveVikram Vedha (2018) Hindi - 720p - WEB HD - AVC - AAC-GM ExclusiveVikram Vedha (2018) Hindi - 720p - WEB HD - AVC - AAC-GM ExclusiveVikram Vedha (2018) Hindi - 720p - WEB HD - AVC - AAC-GM ExclusiveVikram Vedha (2018) Hindi - 720p - WEB HD - AVC - AAC-GM ExclusiveVikram Vedha (2018) Hindi - 720p - WEB HD - AVC - AAC-GM ExclusiveVikram Vedha (2018) Hindi - 720p - WEB HD - AVC - AAC-GM ExclusiveVikram Vedha (2018) Hindi - 720p - WEB HD - AVC - AAC-GM Exclusive


SINGLE DIRECT FAST LINKS

http://www.heroupload.us/6cadb4614eade9ff/Vikram.Vedha.2018.Hindi.720P.UntoucheD.WEB-HD.AVC.AAC-GM.Exclusive.mp4



http://filefloater.com/Tnh/Vikram.Vedha.2018.Hindi.720P.UntoucheD.WEB-HD.AVC.AAC-GM.Exclusive.mp4



Теги: Vikram

Dear visitor, you are browsing our website as Guest.
We strongly recommend you to register and login to view hidden contents.

Comments:

Add Comments
Reply
  • Group: Guests
  • ICQ:
  • Registration: --
  • Status:
  • 0 Comment
  • 0 Article
^
Народ кто желает играть в современные игры на самых высоких настройках с динамичными теняими
даже на самых слабых ПК или ноутах. Без лагов и фризов (Но нужен более менее нормальный инет).
Читайте статья по настройке компа здесь.
Видео по установке и настройке смотрите тут.
Играю уже пол года на ведре 2005 г. Буду рад кому помог разорить буржуев игровой индустрии!!!