Set as default Homepage|Bookmark
 
 
» » B.A. Pass 2 (2017) 1080p - WEB-DL - DD5.1 - H264-TS Exclusive
Advertise

B.A. Pass 2 (2017) 1080p - WEB-DL - DD5.1 - H264-TS Exclusive

Author: wroser on 1-06-2018, 23:58
B.A. Pass 2 (2017) 1080p - WEB-DL - DD5.1 - H264-TS Exclusive







General

Format                      : Matroska
Format version              : Version 4 / Version 2
File size                   : 3.39 GiB
Duration                    : 2 h 5 min
Overall bit rate mode       : Variable
Overall bit rate            : 3 858 kb/s
Encoded date                : UTC 2018-06-01 14:32:09
Writing application         : mkvmerge v17.0.0 ('Be Ur Friend') 64-bit
Writing library             : libebml v1.3.5 + libmatroska v1.4.8

Video
ID                          : 1
Format                      : AVC
Format/Info                 : Advanced Video Codec
Format profile              : Main@L4
Format settings, CABAC      : Yes
Format settings, RefFrames  : 3 frames
Codec ID                    : V_MPEG4/ISO/AVC
Duration                    : 2 h 5 min
Bit rate mode               : Variable
Bit rate                    : 3 480 kb/s
Maximum bit rate            : 5 220 kb/s
Width                       : 1 920 pixels
Height                      : 1 080 pixels
Display aspect ratio        : 16:9
Frame rate mode             : Constant
Frame rate                  : 24.000 FPS
Color space                 : YUV
Chroma subsampling          : 4:2:0
Bit depth                   : 8 bits
Scan type                   : Progressive
Bits/(Pixel*Frame)          : 0.070
Stream size                 : 3.05 GiB (90%)
Title                       : =TeamSunny=
Writing library             : x264 core 148 r2715 7e75228
Encoding settings           : cabac=1 / ref=3 / deblock=1:0:0 / analyse=0x1:0x111 / me=umh / subme=10 / psy=1 / psy_rd=1.00:0.00 / mixed_ref=1 / me_range=24 / chroma_me=1 / trellis=2 / 8x8dct=0 / cqm=0 / deadzone=21,11 / fast_pskip=1 / chroma_qp_offset=-2 / threads=8 / lookahead_threads=1 / sliced_threads=0 / nr=0 / decimate=1 / interlaced=0 / bluray_compat=0 / stitchable=1 / constrained_intra=0 / bframes=2 / b_pyramid=0 / b_adapt=2 / b_bias=0 / direct=3 / weightb=1 / open_gop=0 / weightp=2 / keyint=48 / keyint_min=25 / scenecut=0 / intra_refresh=0 / rc_lookahead=48 / rc=2pass / mbtree=1 / bitrate=3480 / ratetol=1.0 / qcomp=0.50 / qpmin=6 / qpmax=51 / qpstep=4 / cplxblur=20.0 / qblur=0.5 / vbv_maxrate=5220 / vbv_bufsize=6960 / nal_hrd=vbr / filler=0 / ip_ratio=1.40 / aq=1:1.00
Language                    : Hindi
Default                     : Yes
Forced                      : No

Audio
ID                          : 2
Format                      : AC-3
Format/Info                 : Audio Coding 3
Format settings, Endianness : Big
Codec ID                    : A_AC3
Duration                    : 2 h 5 min
Bit rate mode               : Constant
Bit rate                    : 384 kb/s
Channel(s)                  : 6 channels
Channel positions           : Front: L C R, Side: L R, LFE
Sampling rate               : 48.0 kHz
Frame rate                  : 31.250 FPS (1536 SPF)
Bit depth                   : 16 bits
Compression mode            : Lossy
Stream size                 : 345 MiB (10%)
Title                       : DD 5.1 =TeamSunny=
Language                    : Hindi
Service kind                : Complete Main
Default                     : Yes
Forced                      : No

Text
ID                          : 3
Format                      : UTF-8
Codec ID                    : S_TEXT/UTF8
Codec ID/Info               : UTF-8 Plain Text
Duration                    : 2 h 2 min
Bit rate                    : 64 b/s
Count of elements           : 1539
Stream size                 : 58.4 KiB (0%)
Title                       : =TeamSunny=
Language                    : English
Default                     : Yes
Forced                      : Yes



B.A. Pass 2 (2017) 1080p - WEB-DL - DD5.1 - H264-TS Exclusive
B.A. Pass 2 (2017) 1080p - WEB-DL - DD5.1 - H264-TS Exclusive
B.A. Pass 2 (2017) 1080p - WEB-DL - DD5.1 - H264-TS Exclusive
B.A. Pass 2 (2017) 1080p - WEB-DL - DD5.1 - H264-TS Exclusive
B.A. Pass 2 (2017) 1080p - WEB-DL - DD5.1 - H264-TS Exclusive
B.A. Pass 2 (2017) 1080p - WEB-DL - DD5.1 - H264-TS Exclusive
B.A. Pass 2 (2017) 1080p - WEB-DL - DD5.1 - H264-TS Exclusive
B.A. Pass 2 (2017) 1080p - WEB-DL - DD5.1 - H264-TS Exclusive
B.A. Pass 2 (2017) 1080p - WEB-DL - DD5.1 - H264-TS Exclusive
B.A. Pass 2 (2017) 1080p - WEB-DL - DD5.1 - H264-TS Exclusive


SINGLE DIRECT FAST LINKS
http://www.heroupload.us/204c24b6f53ad1ab/B.A.Pass.2.2017.Hindi.1080p.WEB-DL.DD5.1.H264-TeamSunny.mkv


http://filefloater.com/Tit/B.A.Pass.2.2017.Hindi.1080p.WEB-DL.DD5.1.H264-TeamSunny.mkv

1GB LINKS

http://www.heroupload.us/22335975d412b97f/B.A.Pass.2.2017.Hindi.1080p.WEB-DL.DD5.1.H264-TeamSunny.part1.rar
http://www.heroupload.us/d6ec902b25d4f9ad/B.A.Pass.2.2017.Hindi.1080p.WEB-DL.DD5.1.H264-TeamSunny.part2.rar
http://www.heroupload.us/4474e291ee24976f/B.A.Pass.2.2017.Hindi.1080p.WEB-DL.DD5.1.H264-TeamSunny.part3.rar
http://www.heroupload.us/e1fd88c28310d68b/B.A.Pass.2.2017.Hindi.1080p.WEB-DL.DD5.1.H264-TeamSunny.part4.rar



http://filefloater.com/Tiu/B.A.Pass.2.2017.Hindi.1080p.WEB-DL.DD5.1.H264-TeamSunny.part1.rar
http://filefloater.com/Tiv/B.A.Pass.2.2017.Hindi.1080p.WEB-DL.DD5.1.H264-TeamSunny.part2.rar
http://filefloater.com/Tiw/B.A.Pass.2.2017.Hindi.1080p.WEB-DL.DD5.1.H264-TeamSunny.part3.rar
http://filefloater.com/Tix/B.A.Pass.2.2017.Hindi.1080p.WEB-DL.DD5.1.H264-TeamSunny.part4.rar



Теги: B

Dear visitor, you are browsing our website as Guest.
We strongly recommend you to register and login to view hidden contents.

Comments:

Add Comments
Reply
  • Group: Members
  • ICQ:
  • Registration: 22.03.2018
  • Status: Currently Offline
  • 141 Comment
  • 0 Article
^
DOWNLOAD :

http://thescenebox.com/444162c048d9368b/r352s3f45
http://thescenebox.com/444162c048d9368b/345ds623



Free download Place, Free File Downloads, Free torrent site, Free torrent downloads, Your Torrent engine, yourfilebb20180, yourfilebb280, yourfilebboo0
, Torrent download
Reply
  • Group: Members
  • ICQ:
  • Registration: 22.03.2018
  • Status: Currently Offline
  • 141 Comment
  • 0 Article
^
DOWNLOAD :

http://thescenebox.com/444162c048d9368b/r352s3f45
http://thescenebox.com/444162c048d9368b/345ds623



Free download Place, Free File Downloads, Free torrent site, Free torrent downloads, Your Torrent engine, yourfilebb20180, yourfilebb280, yourfilebboo0
, Torrent download

DOWNLOAD :

http://thescenebox.com/444162c048d9368b/r352s3f45
http://thescenebox.com/444162c048d9368b/345ds623



Free download Place, Free File Downloads, Free torrent site, Free torrent downloads, Your Torrent engine, yourfilebb20180, yourfilebb280, yourfilebboo0
, Torrent download
Reply
  • Group: Guests
  • ICQ:
  • Registration: --
  • Status:
  • 0 Comment
  • 0 Article
^
Народ кто желает играть в современные игры на высоких настройках с динамичными теняими
даже на самых слабых ПК или ноутах. Без лагов и фризов (Но нужен более менее нормальный инет).
Держите пожайлуста: Скачать саму прогу можно здесь. | Видео по установке и настройке смотрите тут.
Внимание!!! Данный патч позволяет играть бесплатно пять часов в сутки.
Если Вас интересует "Безлимит" то за 70 руб. в мес. обеспечу обновлние, поддержку и помогу с настройкой!
Играю уже девять месяцев на ведре 2005 г. Буду рад кому помог разорить буржуев игровой индустрии!!!
Если заинтересовало пишите в форму обратной связи. Перед покупкой протестируйте бесплатные возможности.