Set as default Homepage|Bookmark
 
 
» » Hebbuli (2018) Hindi - 720p - WEB-HD - AVC - AAC-GM Exclusive
Advertise

Hebbuli (2018) Hindi - 720p - WEB-HD - AVC - AAC-GM Exclusive

Author: wroser on 11-05-2018, 22:03
Hebbuli (2018) Hindi - 720p - WEB-HD - AVC - AAC-GM Exclusive






General
Format                      : MPEG-4
Format profile              : Base Media / Version 2
Codec ID                    : mp42 (isom/mp42)
File size                   : 886 MiB
Duration                    : 1 h 56 min
Overall bit rate mode       : Variable
Overall bit rate            : 1 066 kb/s
Encoded date                : UTC 2018-05-11 21:11:45
Tagged date                 : UTC 2018-05-11 21:11:45
gsst                        : 0
gstd                        : 6969910

Video
ID                          : 1
Format                      : AVC
Format/Info                 : Advanced Video Codec
Format profile              : Main@L3.1
Format settings, CABAC      : Yes
Format settings, RefFrames  : 3 frames
Codec ID                    : avc1
Codec ID/Info               : Advanced Video Coding
Duration                    : 1 h 56 min
Bit rate                    : 937 kb/s
Width                       : 1 280 pixels
Height                      : 720 pixels
Display aspect ratio        : 16:9
Frame rate mode             : Constant
Frame rate                  : 25.000 FPS
Color space                 : YUV
Chroma subsampling          : 4:2:0
Bit depth                   : 8 bits
Scan type                   : Progressive
Bits/(Pixel*Frame)          : 0.041
Stream size                 : 778 MiB (88%)
Title                       : ISO Media file produced by Google Inc. Created on: 05/11/2018.
Encoded date                : UTC 2018-05-11 21:11:45
Tagged date                 : UTC 2018-05-11 21:11:45
Color range                 : Limited
Color primaries             : BT.709
Transfer characteristics    : BT.709
Matrix coefficients         : BT.709

Audio
ID                          : 2
Format                      : AAC
Format/Info                 : Advanced Audio Codec
Format profile              : LC
Codec ID                    : 40
Duration                    : 1 h 56 min
Source duration             : 1 h 56 min
Bit rate mode               : Variable
Bit rate                    : 126 kb/s
Channel(s)                  : 2 channels
Channel positions           : Front: L R
Sampling rate               : 44.1 kHz
Frame rate                  : 43.066 FPS (1024 SPF)
Compression mode            : Lossy
Stream size                 : 104 MiB (12%)
Source stream size          : 104 MiB (12%)
Title                       : ISO Media file produced by Google Inc. Created on: 05/11/2018.
Language                    : English
Encoded date                : UTC 2018-05-11 21:11:45
Tagged date                 : UTC 2018-05-11 21:11:45



Hebbuli (2018) Hindi - 720p - WEB-HD - AVC - AAC-GM Exclusive

SINGLE DIRECT FAST LINKS


http://www.heroupload.us/6f0249cfe0704b2c/Hebbuli.2018.Hindi.720p.WEB-HD.AVC.AAC-GM.MP4


http://filefloater.com/T3t/Hebbuli.2018.Hindi.720p.WEB-HD.AVC.AAC-GM.MP4



Теги: Hebbuli

Dear visitor, you are browsing our website as Guest.
We strongly recommend you to register and login to view hidden contents.

Comments:

Add Comments
Reply
  • Group: Guests
  • ICQ:
  • Registration: --
  • Status:
  • 0 Comment
  • 0 Article
^
it is asking me for a file password for filefloater link?