Set as default Homepage|Bookmark
 
 
» » Baaghi 2 (2018) Untouched - 1080p - HDTV - x264 - AAC 7.1-Team Jio Exclusive
Advertise

Baaghi 2 (2018) Untouched - 1080p - HDTV - x264 - AAC 7.1-Team Jio Exclusive

Author: wroser on 18-04-2018, 21:22
Baaghi 2 (2018) Untouched - 1080p - HDTV - x264 - AAC 7.1-Team Jio Exclusive





General
Format                      : Matroska
Format version              : Version 4 / Version 2
File size                   : 14.2 GiB
Duration                    : 2 h 23 min
Overall bit rate            : 14.2 Mb/s
Encoded date                : UTC 2018-04-17 08:50:24
Writing application         : mkvmerge v22.0.0 ('At The End Of The World') 64-bit
Writing library             : libebml v1.3.5 + libmatroska v1.4.8 / Lavf57.84.100

Video
ID                          : 1
Format                      : AVC
Format/Info                 : Advanced Video Codec
Format profile              : High@L4
Format settings, CABAC      : Yes
Format settings, RefFrames  : 4 frames
Codec ID                    : V_MPEG4/ISO/AVC
Duration                    : 2 h 23 min
Bit rate                    : 13.7 Mb/s
Nominal bit rate            : 15.0 Mb/s
Width                       : 1 920 pixels
Height                      : 1 080 pixels
Display aspect ratio        : 16:9
Frame rate mode             : Variable
Frame rate                  : 30.000 FPS
Color space                 : YUV
Chroma subsampling          : 4:2:0
Bit depth                   : 8 bits
Scan type                   : Progressive
Bits/(Pixel*Frame)          : 0.221
Stream size                 : 13.7 GiB (97%)
Writing library             : x264 core 148 r2762 90a61ec
Encoding settings           : cabac=1 / ref=1 / deblock=1:0:0 / analyse=0x3:0x113 / me=hex / subme=2 / psy=1 / psy_rd=1.00:0.00 / mixed_ref=0 / me_range=16 / chroma_me=1 / trellis=0 / 8x8dct=1 / cqm=0 / deadzone=21,11 / fast_pskip=1 / chroma_qp_offset=0 / threads=12 / lookahead_threads=4 / sliced_threads=0 / nr=0 / decimate=1 / interlaced=0 / bluray_compat=0 / constrained_intra=0 / bframes=3 / b_pyramid=2 / b_adapt=1 / b_bias=0 / direct=1 / weightb=1 / open_gop=0 / weightp=1 / keyint=250 / keyint_min=25 / scenecut=40 / intra_refresh=0 / rc_lookahead=10 / rc=cbr / mbtree=1 / bitrate=15000 / ratetol=1.0 / qcomp=0.60 / qpmin=0 / qpmax=69 / qpstep=4 / vbv_maxrate=15000 / vbv_bufsize=15000 / nal_hrd=none / filler=1 / ip_ratio=1.40 / aq=1:1.00
Default                     : Yes
Forced                      : No

Audio
ID                          : 2
Format                      : AAC
Format/Info                 : Advanced Audio Codec
Format profile              : LC
Codec ID                    : A_AAC
Duration                    : 2 h 23 min
Bit rate                    : 439 kb/s
Channel(s)                  : 7 channels
Channel(s)_Original         : 8 channels
Channel positions           : Front: L C R, Side: L R, Back: L R, LFE
Sampling rate               : 48.0 kHz
Frame rate                  : 46.875 FPS (1024 SPF)
Compression mode            : Lossy
Stream size                 : 450 MiB (3%)
Title                       : Track1
Default                     : Yes
Forced                      : No



Baaghi 2 (2018) Untouched - 1080p - HDTV - x264 - AAC 7.1-Team Jio ExclusiveBaaghi 2 (2018) Untouched - 1080p - HDTV - x264 - AAC 7.1-Team Jio ExclusiveBaaghi 2 (2018) Untouched - 1080p - HDTV - x264 - AAC 7.1-Team Jio ExclusiveBaaghi 2 (2018) Untouched - 1080p - HDTV - x264 - AAC 7.1-Team Jio ExclusiveBaaghi 2 (2018) Untouched - 1080p - HDTV - x264 - AAC 7.1-Team Jio ExclusiveBaaghi 2 (2018) Untouched - 1080p - HDTV - x264 - AAC 7.1-Team Jio ExclusiveBaaghi 2 (2018) Untouched - 1080p - HDTV - x264 - AAC 7.1-Team Jio ExclusiveBaaghi 2 (2018) Untouched - 1080p - HDTV - x264 - AAC 7.1-Team Jio Exclusive



SINGLE DIRECT FAST LINKS

http://www.heroupload.us/953f90d05227a073/Baaghi.2018.Untouched.1080p.HD-HDTV.DD.7.1.Audio-Team.Jio.Exclusive.mkv


2GB LINKS

http://www.heroupload.us/7a9b5ac2e9f33195/Baaghi.2018.Untouched.1080p.HD-HDTV.DD.7.1.Audio-Team.Jio.Exclusive.part1.rar
http://www.heroupload.us/930c233acb121c32/Baaghi.2018.Untouched.1080p.HD-HDTV.DD.7.1.Audio-Team.Jio.Exclusive.part2.rar
http://www.heroupload.us/b565370a71b0acf5/Baaghi.2018.Untouched.1080p.HD-HDTV.DD.7.1.Audio-Team.Jio.Exclusive.part3.rar
http://www.heroupload.us/2e48f8bab1b6dc40/Baaghi.2018.Untouched.1080p.HD-HDTV.DD.7.1.Audio-Team.Jio.Exclusive.part4.rar
http://www.heroupload.us/981ece7f465b6aa4/Baaghi.2018.Untouched.1080p.HD-HDTV.DD.7.1.Audio-Team.Jio.Exclusive.part5.rar
http://www.heroupload.us/8efa6f00cab2bfc0/Baaghi.2018.Untouched.1080p.HD-HDTV.DD.7.1.Audio-Team.Jio.Exclusive.part6.rar
http://www.heroupload.us/e2b15480777ef63d/Baaghi.2018.Untouched.1080p.HD-HDTV.DD.7.1.Audio-Team.Jio.Exclusive.part7.rar
http://www.heroupload.us/4bded2c8c708626c/Baaghi.2018.Untouched.1080p.HD-HDTV.DD.7.1.Audio-Team.Jio.Exclusive.part8.rar



http://filefloater.com/SI9/Baaghi.2018.Untouched.1080p.HD-HDTV.DD.7.1.Audio-Team.Jio.Exclusive.part1.rar
http://filefloater.com/SIa/Baaghi.2018.Untouched.1080p.HD-HDTV.DD.7.1.Audio-Team.Jio.Exclusive.part2.rar
http://filefloater.com/SIb/Baaghi.2018.Untouched.1080p.HD-HDTV.DD.7.1.Audio-Team.Jio.Exclusive.part3.rar
http://filefloater.com/SIc/Baaghi.2018.Untouched.1080p.HD-HDTV.DD.7.1.Audio-Team.Jio.Exclusive.part4.rar
http://filefloater.com/SId/Baaghi.2018.Untouched.1080p.HD-HDTV.DD.7.1.Audio-Team.Jio.Exclusive.part5.rar
http://filefloater.com/SIe/Baaghi.2018.Untouched.1080p.HD-HDTV.DD.7.1.Audio-Team.Jio.Exclusive.part6.rar
http://filefloater.com/SIf/Baaghi.2018.Untouched.1080p.HD-HDTV.DD.7.1.Audio-Team.Jio.Exclusive.part7.rar
http://filefloater.com/SIg/Baaghi.2018.Untouched.1080p.HD-HDTV.DD.7.1.Audio-Team.Jio.Exclusive.part8.rar




Теги: Baaghi

Dear visitor, you are browsing our website as Guest.
We strongly recommend you to register and login to view hidden contents.

Comments:

Add Comments