Set as default Homepage|Bookmark
 
 
» » Khatarnak Khiladi 4 (2018) Hindi - 720p - WEB-HD - AVC - AAC-GM Exclusive
Advertise

Khatarnak Khiladi 4 (2018) Hindi - 720p - WEB-HD - AVC - AAC-GM Exclusive

Author: wroser on 16-04-2018, 23:05
Khatarnak Khiladi 4 (2018) Hindi - 720p - WEB-HD - AVC - AAC-GM Exclusive






General
Format                      : MPEG-4
Format profile              : Base Media / Version 2
Codec ID                    : mp42 (isom/mp42)
File size                   : 619 MiB
Duration                    : 1 h 46 min
Overall bit rate mode       : Variable
Overall bit rate            : 815 kb/s
Encoded date                : UTC 2018-04-13 19:30:39
Tagged date                 : UTC 2018-04-13 19:30:39
gsst                        : 0
gstd                        : 6373877

Video
ID                          : 1
Format                      : AVC
Format/Info                 : Advanced Video Codec
Format profile              : Main@L3.1
Format settings, CABAC      : Yes
Format settings, RefFrames  : 3 frames
Codec ID                    : avc1
Codec ID/Info               : Advanced Video Coding
Duration                    : 1 h 46 min
Bit rate                    : 686 kb/s
Width                       : 1 280 pixels
Height                      : 720 pixels
Display aspect ratio        : 16:9
Frame rate mode             : Constant
Frame rate                  : 25.000 FPS
Color space                 : YUV
Chroma subsampling          : 4:2:0
Bit depth                   : 8 bits
Scan type                   : Progressive
Bits/(Pixel*Frame)          : 0.030
Stream size                 : 521 MiB (84%)
Title                       : ISO Media file produced by Google Inc. Created on: 04/13/2018.
Encoded date                : UTC 2018-04-13 19:30:39
Tagged date                 : UTC 2018-04-13 19:30:39
Color range                 : Limited
Color primaries             : BT.709
Transfer characteristics    : BT.709
Matrix coefficients         : BT.709

Audio
ID                          : 2
Format                      : AAC
Format/Info                 : Advanced Audio Codec
Format profile              : LC
Codec ID                    : 40
Duration                    : 1 h 46 min
Bit rate mode               : Variable
Bit rate                    : 126 kb/s
Channel(s)                  : 2 channels
Channel positions           : Front: L R
Sampling rate               : 44.1 kHz
Frame rate                  : 43.066 FPS (1024 SPF)
Compression mode            : Lossy
Stream size                 : 95.4 MiB (15%)
Title                       : ISO Media file produced by Google Inc. Created on: 04/13/2018.
Language                    : English
Encoded date                : UTC 2018-04-13 19:30:39
Tagged date                 : UTC 2018-04-13 19:30:39




Khatarnak Khiladi 4 (2018) Hindi - 720p - WEB-HD - AVC - AAC-GM Exclusive

SINGLE DIRECT FAST LINKS


http://www.heroupload.us/bb31ea3bba53f60f/Khatarnak.Khiladi.4.Achcham.Yenbadhu.Madamaiyada.2018.WEB-HD.720p.AVC.AAC-GM.MP4



http://filefloater.com/SHq/Khatarnak.Khiladi.4.Achcham.Yenbadhu.Madamaiyada.2018.WEB-HD.720p.AVC.AAC-GM.MP4




Теги: Khatarnak

Dear visitor, you are browsing our website as Guest.
We strongly recommend you to register and login to view hidden contents.

Comments:

Add Comments