Set as default Homepage|Bookmark
 
 
» » DJ Duvvada Jagannadham (2017) 720p HDRip x264 [Multi Audio][Malayalam+Telugu+Hindi]
Advertise

DJ Duvvada Jagannadham (2017) 720p HDRip x264 [Multi Audio][Malayalam+Telugu+Hindi]

Author: wroser on 16-04-2018, 22:41
DJ Duvvada Jagannadham (2017) 720p HDRip x264 [Multi Audio][Malayalam+Telugu+Hindi]






General
Format                      : Matroska
Format version              : Version 4 / Version 2
File size                   : 1.39 GiB
Duration                    : 2 h 26 min
Overall bit rate mode       : Variable
Overall bit rate            : 1 351 kb/s
Encoded date                : UTC 2018-04-15 16:47:06
Writing application         : mkvmerge v7.8.0 ('River Man') 64bit built on Mar 27 2015 16:31:37
Writing library             : libebml v1.3.1 + libmatroska v1.4.2

Video
ID                          : 1
Format                      : AVC
Format/Info                 : Advanced Video Codec
Format profile              : Main@L3.1
Format settings, CABAC      : Yes
Format settings, RefFrames  : 3 frames
Codec ID                    : V_MPEG4/ISO/AVC
Duration                    : 2 h 26 min
Bit rate                    : 1 045 kb/s
Width                       : 1 280 pixels
Height                      : 720 pixels
Display aspect ratio        : 16:9
Frame rate mode             : Constant
Frame rate                  : 24.000 FPS
Color space                 : YUV
Chroma subsampling          : 4:2:0
Bit depth                   : 8 bits
Scan type                   : Progressive
Bits/(Pixel*Frame)          : 0.047
Stream size                 : 1.07 GiB (77%)
Default                     : Yes
Forced                      : No
Color range                 : Limited
Color primaries             : BT.709
Transfer characteristics    : BT.709
Matrix coefficients         : BT.709

Audio #1
ID                          : 2
Format                      : MPEG Audio
Format version              : Version 2
Format profile              : Layer 3
Mode                        : Joint stereo
Mode extension              : Intensity Stereo + MS Stereo
Codec ID                    : A_MPEG/L3
Codec ID/Hint               : MP3
Duration                    : 2 h 26 min
Bit rate mode               : Constant
Bit rate                    : 80.0 kb/s
Channel(s)                  : 2 channels
Sampling rate               : 22.05 kHz
Frame rate                  : 38.281 FPS (576 SPF)
Compression mode            : Lossy
Stream size                 : 84.0 MiB (6%)
Language                    : Malayalam
Default                     : Yes
Forced                      : No

Audio #2
ID                          : 3
Format                      : MPEG Audio
Format version              : Version 1
Format profile              : Layer 3
Mode                        : Joint stereo
Mode extension              : MS Stereo
Codec ID                    : A_MPEG/L3
Codec ID/Hint               : MP3
Duration                    : 2 h 26 min
Bit rate mode               : Constant
Bit rate                    : 96.0 kb/s
Channel(s)                  : 2 channels
Sampling rate               : 44.1 kHz
Frame rate                  : 38.281 FPS (1152 SPF)
Compression mode            : Lossy
Stream size                 : 101 MiB (7%)
Writing library             : LAME3.99.5
Language                    : Telugu
Default                     : No
Forced                      : No

Audio #3
ID                          : 4
Format                      : MPEG Audio
Format version              : Version 1
Format profile              : Layer 3
Mode                        : Joint stereo
Mode extension              : MS Stereo
Codec ID                    : A_MPEG/L3
Codec ID/Hint               : MP3
Duration                    : 2 h 26 min
Bit rate mode               : Variable
Bit rate                    : 128 kb/s
Channel(s)                  : 2 channels
Sampling rate               : 44.1 kHz
Frame rate                  : 38.281 FPS (1152 SPF)
Compression mode            : Lossy
Stream size                 : 133 MiB (9%)
Writing library             : LAME3.99r
Encoding settings           : -m j -V 4 -q 3 -lowpass 17 --abr 128
Language                    : Hindi
Default                     : No
Forced                      : No

Text
ID                          : 5
Format                      : UTF-8
Codec ID                    : S_TEXT/UTF8
Codec ID/Info               : UTF-8 Plain Text
Duration                    : 2 h 24 min
Bit rate                    : 46 b/s
Count of elements           : 923
Stream size                 : 48.8 KiB (0%)
Language                    : English
Default                     : Yes
Forced                      : No



DJ Duvvada Jagannadham (2017) 720p HDRip x264 [Multi Audio][Malayalam+Telugu+Hindi]DJ Duvvada Jagannadham (2017) 720p HDRip x264 [Multi Audio][Malayalam+Telugu+Hindi]DJ Duvvada Jagannadham (2017) 720p HDRip x264 [Multi Audio][Malayalam+Telugu+Hindi]DJ Duvvada Jagannadham (2017) 720p HDRip x264 [Multi Audio][Malayalam+Telugu+Hindi]



SINGLE DIRECT FAST LINKS

http://www.heroupload.us/44d40cd5f4d9ecda/DJ.Duvvada.Jagannadham.2017.720p.HDRip.Malayalam+Telugu+Hindi.x264.ESubs-Exclusive.mkv



http://filefloater.com/SHp/DJ.Duvvada.Jagannadham.2017.720p.HDRip.Malayalam+Telugu+Hindi.x264.ESubs-Exclusive.mkv




Теги: DJ

Dear visitor, you are browsing our website as Guest.
We strongly recommend you to register and login to view hidden contents.

Comments:

Add Comments