Set as default Homepage|Bookmark
 
 
» » Suhaag (1994) 1080p WebHD AVC AAC ESub-DTOne
Advertise

Suhaag (1994) 1080p WebHD AVC AAC ESub-DTOne

Author: wroser on 14-04-2018, 17:27
Suhaag (1994) 1080p WebHD AVC AAC ESub-DTOne





Format                      : Matroska
Format version              : Version 4 / Version 2
File size                  : 6.62 GiB
Duration                    : 2 h 35 min
Overall bit rate            : 6 083 kb/s
Encoded date                : UTC 2016-05-19 04:50:03
Writing application        : mkvmerge v9.1.0 ('Little Earthquakes') 64bit
Writing library            : libebml v1.3.3 + libmatroska v1.4.4

Video
ID                          : 1
Format                      : AVC
Format/Info                : Advanced Video Codec
Format profile              : High@L4
Format settings            : CABAC / 4 Ref Frames
Format settings, CABAC      : Yes
Format settings, ReFrames  : 4 frames
Codec ID                    : V_MPEG4/ISO/AVC
Duration                    : 2 h 35 min
Bit rate                    : 5 873 kb/s
Width                      : 1 920 pixels
Height                      : 1 080 pixels
Display aspect ratio        : 16:9
Frame rate mode            : Constant
Frame rate                  : 24.000 FPS
Color space                : YUV
Chroma subsampling          : 4:2:0
Bit depth                  : 8 bits
Scan type                  : Progressive
Bits/(Pixel*Frame)          : 0.118
Stream size                : 6.40 GiB (97%)
Writing library            : x264 core 133 r2 a3ac64b
Encoding settings          : cabac=1 / ref=3 / deblock=1:0:0 / analyse=0x3:0x113 / me=hex / subme=7 / psy=1 / psy_rd=1.00:0.00 / mixed_ref=1 / me_range=16 / chroma_me=1 / trellis=1 / 8x8dct=1 / cqm=0 / deadzone=21,11 / fast_pskip=1 / chroma_qp_offset=-2 / threads=12 / lookahead_threads=2 / sliced_threads=0 / nr=0 / decimate=1 / interlaced=0 / bluray_compat=0 / constrained_intra=0 / bframes=3 / b_pyramid=2 / b_adapt=1 / b_bias=0 / direct=1 / weightb=1 / open_gop=0 / weightp=2 / keyint=30 / keyint_min=3 / scenecut=40 / intra_refresh=0 / rc_lookahead=30 / rc=abr / mbtree=1 / bitrate=5873 / ratetol=1.0 / qcomp=0.60 / qpmin=0 / qpmax=69 / qpstep=4 / ip_ratio=1.40 / aq=1:1.00
Default                    : Yes
Forced                      : No

Audio
ID                          : 2
Format                      : AAC
Format/Info                : Advanced Audio Codec
Format profile              : LC
Codec ID                    : A_AAC-2
Duration                    : 2 h 35 min
Bit rate                    : 192 kb/s
Channel(s)                  : 6 channels
Channel positions          : Front: L C R, Side: L R, LFE
Sampling rate              : 48.0 kHz
Frame rate                  : 46.875 FPS (1024 SPF)
Compression mode            : Lossy
Delay relative to video    : -43 ms
Stream size                : 216 MiB (3%)
Default                    : Yes
Forced                      : No

Subtitles     : English


Suhaag (1994) 1080p WebHD AVC AAC ESub-DTOne


SINGLE DIRECT FAST LINKS

http://www.heroupload.us/0ad21e2e5f94081c/Suhaag.1994.1080p.WebHD.AVC.AAC.ESub-DTOne.mkv


1GB LINKS

http://www.heroupload.us/da14c92c4eef3630/Suhaag.1994.1080p.WebHD.AVC.AAC.ESub-DTOne.part1.rar
http://www.heroupload.us/261b39fa19974ee4/Suhaag.1994.1080p.WebHD.AVC.AAC.ESub-DTOne.part2.rar
http://www.heroupload.us/54aa3ccd95a8d55d/Suhaag.1994.1080p.WebHD.AVC.AAC.ESub-DTOne.part3.rar
http://www.heroupload.us/1d3d81cf6936c4fa/Suhaag.1994.1080p.WebHD.AVC.AAC.ESub-DTOne.part4.rar
http://www.heroupload.us/1acd48566fad5d47/Suhaag.1994.1080p.WebHD.AVC.AAC.ESub-DTOne.part5.rar
http://www.heroupload.us/ae2759fd85cfe8ba/Suhaag.1994.1080p.WebHD.AVC.AAC.ESub-DTOne.part6.rar
http://www.heroupload.us/c43196e27e241d31/Suhaag.1994.1080p.WebHD.AVC.AAC.ESub-DTOne.part7.rar



http://filefloater.com/1iGx/Suhaag.1994.1080p.WebHD.AVC.AAC.ESub-DTOne.part1.rar
http://filefloater.com/1iGA/Suhaag.1994.1080p.WebHD.AVC.AAC.ESub-DTOne.part2.rar
http://filefloater.com/1iGC/Suhaag.1994.1080p.WebHD.AVC.AAC.ESub-DTOne.part3.rar
http://filefloater.com/1iGF/Suhaag.1994.1080p.WebHD.AVC.AAC.ESub-DTOne.part4.rar
http://filefloater.com/1iGH/Suhaag.1994.1080p.WebHD.AVC.AAC.ESub-DTOne.part5.rar
http://filefloater.com/1iGL/Suhaag.1994.1080p.WebHD.AVC.AAC.ESub-DTOne.part6.rar
http://filefloater.com/1iGN/Suhaag.1994.1080p.WebHD.AVC.AAC.ESub-DTOne.part7.rar








Теги: Suhaag

Dear visitor, you are browsing our website as Guest.
We strongly recommend you to register and login to view hidden contents.

Comments:

Add Comments