Set as default Homepage|Bookmark
 
 
» » Badman (2016) Hindi 720p WEBHD AAC 2.0 x264 [MW]
Advertise

Badman (2016) Hindi 720p WEBHD AAC 2.0 x264 [MW]

Author: wroser on 14-04-2018, 15:34
Badman (2016) Hindi 720p WEBHD AAC 2.0 x264 [MW]





General
Format                                   : Matroska
Format version                           : Version 4 / Version 2
File size                                : 1 001 MiB
Duration                                 : 1 h 23 min
Overall bit rate                         : 1 684 kb/s

Video
ID                                       : 1
Format                                   : AVC
Format/Info                              : Advanced Video Codec
Format profile                           : High@L3.1
Format settings                          : CABAC / 4 Ref Frames
Format settings, CABAC                   : Yes
Format settings, RefFrames               : 4 frames
Codec ID                                 : V_MPEG4/ISO/AVC
Duration                                 : 1 h 23 min
Bit rate                                 : 1 500 kb/s
Width                                    : 1 280 pixels
Height                                   : 720 pixels
Display aspect ratio                     : 16:9
Frame rate mode                          : Constant
Frame rate                               : 25.000 FPS
Color space                              : YUV
Chroma subsampling                       : 4:2:0
Bit depth                                : 8 bits
Scan type                                : Progressive
Bits/(Pixel*Frame)                       : 0.065
Stream size                              : 885 MiB (88%)
Writing library                          : x264 core 148 r2643 5c65704
Default                                  : Yes
Forced                                   : No

Audio
ID                                       : 2
Format                                   : AAC
Format/Info                              : Advanced Audio Codec
Format profile                           : LC
Codec ID                                 : A_AAC-2
Duration                                 : 1 h 23 min
Bit rate                                 : 192 kb/s
Channel(s)                               : 2 channels
Channel positions                        : Front: L R
Sampling rate                            : 48.0 kHz
Frame rate                               : 46.875 FPS (1024 SPF)
Compression mode                         : Lossy
Stream size                              : 114 MiB (11%)
Default                                  : Yes
Forced                                   : No


Badman (2016) Hindi 720p WEBHD AAC 2.0 x264 [MW]


SINGLE DIRECT FAST LINKS

http://www.heroupload.us/e85556a2b70bc210/Badman.2016.Hindi.720p.WEBHD.AAC.2.0.x264-MW.mkv



http://filefloater.com/1iGv/Badman.2016.Hindi.720p.WEBHD.AAC.2.0.x264-MW.mkv


Теги: Badman

Dear visitor, you are browsing our website as Guest.
We strongly recommend you to register and login to view hidden contents.

Comments:

Add Comments