Set as default Homepage|Bookmark
 
 
» » Stupid Cupid (2015) Hindi 720p WEB-HD AAC 2.0 x264 [MW]
Advertise

Stupid Cupid (2015) Hindi 720p WEB-HD AAC 2.0 x264 [MW]

Author: wroser on 14-04-2018, 15:31
Stupid Cupid (2015) Hindi 720p WEB-HD AAC 2.0 x264 [MW]






General
Format                                   : Matroska
Format version                           : Version 4 / Version 2
File size                                : 1 014 MiB
Duration                                 : 1 h 25 min
Overall bit rate                         : 1 663 kb/s

Video
ID                                       : 1
Format                                   : AVC
Format/Info                              : Advanced Video Codec
Format profile                           : High@L3.1
Format settings                          : CABAC / 4 Ref Frames
Format settings, CABAC                   : Yes
Format settings, RefFrames               : 4 frames
Codec ID                                 : V_MPEG4/ISO/AVC
Duration                                 : 1 h 25 min
Bit rate                                 : 1 500 kb/s
Width                                    : 1 280 pixels
Height                                   : 720 pixels
Display aspect ratio                     : 16:9
Frame rate mode                          : Constant
Frame rate                               : 25.000 FPS
Color space                              : YUV
Chroma subsampling                       : 4:2:0
Bit depth                                : 8 bits
Scan type                                : Progressive
Bits/(Pixel*Frame)                       : 0.065
Stream size                              : 896 MiB (88%)
Writing library                          : x264 core 148 r2643 5c65704
Default                                  : Yes
Forced                                   : No

Audio
ID                                       : 2
Format                                   : AAC
Format/Info                              : Advanced Audio Codec
Format profile                           : LC
Codec ID                                 : A_AAC-2
Duration                                 : 1 h 25 min
Bit rate                                 : 192 kb/s
Channel(s)                               : 2 channels
Channel positions                        : Front: L R
Sampling rate                            : 48.0 kHz
Frame rate                               : 46.875 FPS (1024 SPF)
Compression mode                         : Lossy
Stream size                              : 117 MiB (12%)
Default                                  : Yes
Forced                                   : No


Stupid Cupid (2015) Hindi 720p WEB-HD AAC 2.0 x264 [MW]


SINGLE DIRECT FAST LINKS

http://www.heroupload.us/c69105198badd84c/Stupid.Cupid.2015.Hindi.720p.WEB-HD.AAC.2.0.x264-MW.mkv



http://filefloater.com/1iGu/Stupid.Cupid.2015.Hindi.720p.WEB-HD.AAC.2.0.x264-MW.mkv



Теги: Stupid

Dear visitor, you are browsing our website as Guest.
We strongly recommend you to register and login to view hidden contents.

Comments:

Add Comments