Set as default Homepage|Bookmark
 
 
» » Gunde Jaari Gallanthayyinde (2013) 720p HDRip x264 [Dual Audio][Hindi-Cleaned+Telugu]
Advertise

Gunde Jaari Gallanthayyinde (2013) 720p HDRip x264 [Dual Audio][Hindi-Cleaned+Telugu]

Author: wroser on 19-03-2018, 01:12
Gunde Jaari Gallanthayyinde (2013) 720p HDRip x264 [Dual Audio][Hindi-Cleaned+Telugu]







General
Format                                   : Matroska
Format version                           : Version 4 / Version 2
File size                                : 1.65 GiB
Duration                                 : 2 h 31 min
Overall bit rate                         : 1 563 kb/s
Encoded date                             : UTC 2018-03-18 21:51:19
Writing application                      : mkvmerge v20.0.0 ('I Am The Sun') 64-bit
Writing library                          : libebml v1.3.5 + libmatroska v1.4.8

Video
ID                                       : 1
Format                                   : AVC
Format/Info                              : Advanced Video Codec
Format profile                           : Main@L4
Format settings                          : CABAC / 4 Ref Frames
Format settings, CABAC                   : Yes
Format settings, RefFrames               : 4 frames
Codec ID                                 : V_MPEG4/ISO/AVC
Duration                                 : 2 h 31 min
Bit rate                                 : 1 300 kb/s
Width                                    : 1 280 pixels
Height                                   : 584 pixels
Display aspect ratio                     : 2.2:1
Frame rate mode                          : Constant
Frame rate                               : 30.000 FPS
Color space                              : YUV
Chroma subsampling                       : 4:2:0
Bit depth                                : 8 bits
Scan type                                : Progressive
Bits/(Pixel*Frame)                       : 0.058
Stream size                              : 1.36 GiB (82%)
Writing library                          : x264 core 148 r2708 86b7198
Encoding settings                        : cabac=1 / ref=4 / deblock=1:0:0 / analyse=0x1:0x111 / me=hex / subme=6 / psy=1 / psy_rd=1.00:0.00 / mixed_ref=0 / me_range=16 / chroma_me=1 / trellis=0 / 8x8dct=0 / cqm=0 / deadzone=21,11 / fast_pskip=1 / chroma_qp_offset=-2 / threads=18 / lookahead_threads=3 / sliced_threads=0 / nr=0 / decimate=1 / interlaced=0 / bluray_compat=0 / constrained_intra=0 / bframes=8 / b_pyramid=2 / b_adapt=1 / b_bias=0 / direct=1 / weightb=1 / open_gop=0 / weightp=2 / keyint=300 / keyint_min=30 / scenecut=40 / intra_refresh=0 / rc_lookahead=10 / rc=abr / mbtree=1 / bitrate=1300 / ratetol=1.0 / qcomp=0.60 / qpmin=0 / qpmax=69 / qpstep=4 / vbv_maxrate=20000 / vbv_bufsize=25000 / nal_hrd=none / filler=0 / ip_ratio=1.40 / aq=1:1.00
Default                                  : Yes
Forced                                   : No
Color range                              : Limited
Color primaries                          : BT.709
Transfer characteristics                 : BT.709
Matrix coefficients                      : BT.709

Audio #1
ID                                       : 2
Format                                   : AAC
Format/Info                              : Advanced Audio Codec
Format profile                           : LC
Codec ID                                 : A_AAC-2
Duration                                 : 2 h 31 min
Bit rate                                 : 192 kb/s
Channel(s)                               : 2 channels
Channel positions                        : Front: L R
Sampling rate                            : 24.0 kHz
Frame rate                               : 23.438 FPS (1024 SPF)
Compression mode                         : Lossy
Delay relative to video                  : -43 ms
Stream size                              : 208 MiB (12%)
Default                                  : Yes
Forced                                   : No

Audio #2
ID                                       : 3
Format                                   : AAC
Format/Info                              : Advanced Audio Codec
Format profile                           : LC
Codec ID                                 : A_AAC-2
Duration                                 : 2 h 31 min
Bit rate                                 : 80.3 kb/s
Channel(s)                               : 2 channels
Channel positions                        : Front: L R
Sampling rate                            : 22.05 kHz
Frame rate                               : 21.533 FPS (1024 SPF)
Compression mode                         : Lossy
Delay relative to video                  : -46 ms
Stream size                              : 86.8 MiB (5%)
Default                                  : No
Forced                                   : No

Text
ID                                       : 4
Format                                   : UTF-8
Codec ID                                 : S_TEXT/UTF8
Codec ID/Info                            : UTF-8 Plain Text
Duration                                 : 2 h 29 min
Bit rate                                 : 58 b/s
Count of elements                        : 1822
Stream size                              : 64.0 KiB (0%)
Language                                 : English
Default                                  : Yes
Forced                                   : No 



Gunde Jaari Gallanthayyinde (2013) 720p HDRip x264 [Dual Audio][Hindi-Cleaned+Telugu]Gunde Jaari Gallanthayyinde (2013) 720p HDRip x264 [Dual Audio][Hindi-Cleaned+Telugu]Gunde Jaari Gallanthayyinde (2013) 720p HDRip x264 [Dual Audio][Hindi-Cleaned+Telugu]Gunde Jaari Gallanthayyinde (2013) 720p HDRip x264 [Dual Audio][Hindi-Cleaned+Telugu]Gunde Jaari Gallanthayyinde (2013) 720p HDRip x264 [Dual Audio][Hindi-Cleaned+Telugu]Gunde Jaari Gallanthayyinde (2013) 720p HDRip x264 [Dual Audio][Hindi-Cleaned+Telugu]Gunde Jaari Gallanthayyinde (2013) 720p HDRip x264 [Dual Audio][Hindi-Cleaned+Telugu]Gunde Jaari Gallanthayyinde (2013) 720p HDRip x264 [Dual Audio][Hindi-Cleaned+Telugu]


SINGLE DIRECT FAST LINKS
http://www.heroupload.us/2b3fea1213272be5/Gunde.Jaari.Gallanthayyinde-Heart.Attack.2.2013.720p.Uncut.HDRip.x264.ESubs.Dual.Audio.Hindi.Cleaned+Telugu-MCR.mkv


http://filefloater.com/7vw/Gunde.Jaari.Gallanthayyinde-Heart.Attack.2.2013.720p.Uncut.HDRip.x264.ESubs.Dual.Audio.Hindi.Cleaned+Telugu-MCR.mkv





Теги: Gunde

Dear visitor, you are browsing our website as Guest.
We strongly recommend you to register and login to view hidden contents.

Comments:

Add Comments
Reply
  • Group: Guests
  • ICQ:
  • Registration: --
  • Status:
  • 0 Comment
  • 0 Article
^
I am a big fan of your site sir. I have downloaded a huge collection of South Indian movies from your collections. This is also a very good upload. The uk.superiorpapers.com review about this movie is also very good. The video quality is a bit bad, but the audio is crystal clear to hear from a little distance.