Set as default Homepage|Bookmark
 
 
» » Raid (2018) Hindi - PreDVD - Untouched - MPEG - Exclusive
Advertise

Raid (2018) Hindi - PreDVD - Untouched - MPEG - Exclusive

Author: wroser on 16-03-2018, 20:50
Raid (2018) Hindi - PreDVD - Untouched - MPEG - Exclusive






General
Format                      : MPEG-PS
File size                   : 1.51 GiB
Duration                    : 1 h 40 min
Overall bit rate mode       : Variable
Overall bit rate            : 2 157 kb/s

Video
ID                          : 224 (0xE0)
Format                      : MPEG Video
Format version              : Version 2
Format profile              : Main@Main
Format settings, BVOP       : Yes
Format settings, Matrix     : Custom
Format settings, GOP        : Variable
Duration                    : 1 h 40 min
Bit rate mode               : Variable
Bit rate                    : 2 000 kb/s
Width                       : 720 pixels
Height                      : 480 pixels
Display aspect ratio        : 16:9
Frame rate                  : 25.000 FPS
Standard                    : NTSC
Color space                 : YUV
Chroma subsampling          : 4:2:0
Bit depth                   : 8 bits
Scan type                   : Progressive
Compression mode            : Lossy
Bits/(Pixel*Frame)          : 0.231
Time code of first frame    : 00:00:00:00
Time code source            : Group of pictures header
GOP, Open/Closed            : Open
GOP, Open/Closed of first f : Closed
Stream size                 : 1.39 GiB (92%)
Writing library             : TMPGEnc Video Mastering Works 5 Version. 5.0.6.38
Color primaries             : BT.601 PAL
Transfer characteristics    : BT.470 System B, BT.470 System G
Matrix coefficients         : BT.601

Audio
ID                          : 192 (0xC0)
Format                      : MPEG Audio
Format version              : Version 1
Format profile              : Layer 2
Duration                    : 1 h 40 min
Bit rate mode               : Constant
Bit rate                    : 128 kb/s
Channel(s)                  : 2 channels
Sampling rate               : 48.0 kHz
Compression mode            : Lossy
Stream size                 : 92.0 MiB (6%)



Raid (2018) Hindi - PreDVD - Untouched - MPEG - ExclusiveRaid (2018) Hindi - PreDVD - Untouched - MPEG - ExclusiveRaid (2018) Hindi - PreDVD - Untouched - MPEG - ExclusiveRaid (2018) Hindi - PreDVD - Untouched - MPEG - ExclusiveRaid (2018) Hindi - PreDVD - Untouched - MPEG - ExclusiveRaid (2018) Hindi - PreDVD - Untouched - MPEG - ExclusiveRaid (2018) Hindi - PreDVD - Untouched - MPEG - ExclusiveRaid (2018) Hindi - PreDVD - Untouched - MPEG - Exclusive


SINGLE DIRECT FAST LINKS


http://www.heroupload.us/13bbcf3712442f39/Raid.2018.Hindi.Untouched.x264-Exclusive.mpg


http://filefloater.com/7uh/Raid.2018.Hindi.Untouched.x264-Exclusive.mpg





Теги: Raid

Dear visitor, you are browsing our website as Guest.
We strongly recommend you to register and login to view hidden contents.

Comments:

Add Comments