Set as default Homepage|Bookmark
 
 
» » Rocket Raja - Thikka (2016) 1080p - HDRip - x264 - Esubs [Dual Audio][Hindi+Telugu]
Advertise

Rocket Raja - Thikka (2016) 1080p - HDRip - x264 - Esubs [Dual Audio][Hindi+Telugu]

Author: wroser on 13-02-2018, 20:56
Rocket Raja - Thikka (2016) 1080p - HDRip - x264 - Esubs [Dual Audio][Hindi+Telugu]





General
Format                      : Matroska
Format version              : Version 4 / Version 2
File size                   : 1.54 GiB
Duration                    : 1 h 59 min
Overall bit rate mode       : Variable
Overall bit rate            : 1 851 kb/s
Encoded date                : UTC 2018-02-13 05:09:27
Writing application         : mkvmerge v7.1.0 ('Good Love') 32bit built on Jul 27 2014 12:59:18
Writing library             : libebml v1.3.0 + libmatroska v1.4.1

Video
ID                          : 1
Format                      : AVC
Format/Info                 : Advanced Video Codec
Format profile              : High@L4
Format settings, CABAC      : Yes
Format settings, RefFrames  : 3 frames
Codec ID                    : V_MPEG4/ISO/AVC
Duration                    : 1 h 59 min
Bit rate                    : 1 629 kb/s
Width                       : 1 920 pixels
Height                      : 1 080 pixels
Display aspect ratio        : 16:9
Frame rate mode             : Constant
Frame rate                  : 25.000 FPS
Color space                 : YUV
Chroma subsampling          : 4:2:0
Bit depth                   : 8 bits
Scan type                   : Progressive
Bits/(Pixel*Frame)          : 0.031
Stream size                 : 1.36 GiB (88%)
Language                    : Hindi
Default                     : Yes
Forced                      : No
Color range                 : Limited
Color primaries             : BT.709
Transfer characteristics    : BT.709
Matrix coefficients         : BT.709

Audio #1
ID                          : 2
Format                      : MPEG Audio
Format version              : Version 1
Format profile              : Layer 3
Mode                        : Joint stereo
Mode extension              : MS Stereo
Codec ID                    : A_MPEG/L3
Codec ID/Hint               : MP3
Duration                    : 1 h 59 min
Bit rate mode               : Variable
Bit rate                    : 96.0 kb/s
Channel(s)                  : 2 channels
Sampling rate               : 44.1 kHz
Frame rate                  : 38.281 FPS (1152 SPF)
Compression mode            : Lossy
Stream size                 : 79.9 MiB (5%)
Writing library             : LAME3.99r
Encoding settings           : -m j -V 4 -q 3 -lowpass 15.1 --abr 96
Language                    : Telugu
Default                     : Yes
Forced                      : No

Audio #2
ID                          : 3
Format                      : AAC
Format/Info                 : Advanced Audio Codec
Format profile              : LC
Codec ID                    : A_AAC
Duration                    : 1 h 59 min
Bit rate                    : 126 kb/s
Channel(s)                  : 2 channels
Channel positions           : Front: L R
Sampling rate               : 44.1 kHz
Frame rate                  : 43.066 FPS (1024 SPF)
Compression mode            : Lossy
Stream size                 : 107 MiB (7%)
Language                    : Hindi
Default                     : No
Forced                      : No

Text
ID                          : 4
Format                      : UTF-8
Codec ID                    : S_TEXT/UTF8
Codec ID/Info               : UTF-8 Plain Text
Duration                    : 1 h 58 min
Bit rate                    : 93 b/s
Count of elements           : 2156
Stream size                 : 81.3 KiB (0%)
Language                    : English
Default                     : Yes
Forced                      : No




Rocket Raja - Thikka (2016) 1080p - HDRip - x264 - Esubs [Dual Audio][Hindi+Telugu]Rocket Raja - Thikka (2016) 1080p - HDRip - x264 - Esubs [Dual Audio][Hindi+Telugu]Rocket Raja - Thikka (2016) 1080p - HDRip - x264 - Esubs [Dual Audio][Hindi+Telugu]Rocket Raja - Thikka (2016) 1080p - HDRip - x264 - Esubs [Dual Audio][Hindi+Telugu]Rocket Raja - Thikka (2016) 1080p - HDRip - x264 - Esubs [Dual Audio][Hindi+Telugu]Rocket Raja - Thikka (2016) 1080p - HDRip - x264 - Esubs [Dual Audio][Hindi+Telugu]

Note:-

Hindi Audio Original
Telugu Audio Cam Clean

SINGLE DIRECT FAST LINKS


https://www.heroupload.com/c9a14e333eb3b0c6/Rocket.Raja-Thikka.2016.WEB-HD.1080p.x264.Telugu+Hindi.ESub-TMV.mkv



http://filefloater.com/74U/Rocket.Raja-Thikka.2016.WEB-HD.1080p.x264.Telugu+Hindi.ESub-TMV.mkv



Теги: Rocket

Dear visitor, you are browsing our website as Guest.
We strongly recommend you to register and login to view hidden contents.

Comments:

Add Comments