Set as default Homepage|Bookmark
 
 
» » Padman (2018) 700MB - 1CDRip - PreDVDRip - x264 - MP3 - M2Tv
Advertise

Padman (2018) 700MB - 1CDRip - PreDVDRip - x264 - MP3 - M2Tv

Author: wroser on 12-02-2018, 20:35
Padman (2018) 700MB - 1CDRip - PreDVDRip - x264 - MP3 - M2Tv






Ratings: 8.6/10

Genere:      Biography, Comedy, Drama

General
Format                      : Matroska
Format version              : Version 4 / Version 2
File size                   : 707 MiB
Duration                    : 2 h 12 min
Overall bit rate            : 748 kb/s

Video
ID                          : 1
Format                      : AVC
Codec ID                    : V_MPEG4/ISO/AVC
Duration                    : 2 h 12 min
Bit rate                    : 666 kb/s
Width                       : 656 pixels
Height                      : 288 pixels
Frame rate                  : 25.000 FPS
Stream size                 : 630 MiB (89%)
Title                       : Mafiaking
Language                    : Hindi
Default                     : Yes
Forced                      : No

Audio
ID                          : 2
Format                      : MPEG Audio
Codec ID/Hint               : MP3
Duration                    : 2 h 12 min
Bit rate                    : 80.0 kb/s
Channel(s)                  : 2 channels
Stream size                 : 75.7 MiB (11%)
Title                       : Mafiaking
Language                    : Hindi
Default                     : Yes
Forced                      : No


Padman (2018) 700MB - 1CDRip - PreDVDRip - x264 - MP3 - M2TvPadman (2018) 700MB - 1CDRip - PreDVDRip - x264 - MP3 - M2TvPadman (2018) 700MB - 1CDRip - PreDVDRip - x264 - MP3 - M2TvPadman (2018) 700MB - 1CDRip - PreDVDRip - x264 - MP3 - M2TvPadman (2018) 700MB - 1CDRip - PreDVDRip - x264 - MP3 - M2TvPadman (2018) 700MB - 1CDRip - PreDVDRip - x264 - MP3 - M2TvPadman (2018) 700MB - 1CDRip - PreDVDRip - x264 - MP3 - M2Tv


SINGLE DIRECT FAST LINKS


http://filefloater.com/73X/PADMAN.2018.1CD.PreDVD-Rip.x264.MP3-M2Tv.mkv



https://www.heroupload.com/c343d7a7352ac0d2/PADMAN.2018.1CD.PreDVD-Rip.x264.MP3-M2Tv.mkv



Теги: Padman

Dear visitor, you are browsing our website as Guest.
We strongly recommend you to register and login to view hidden contents.

Comments:

Add Comments