Set as default Homepage|Bookmark
 
 
» » Padman (2018) Untouched NTSC Pre-DVD - DUS Exclusive
Advertise

Padman (2018) Untouched NTSC Pre-DVD - DUS Exclusive

Author: wroser on 9-02-2018, 19:45
Padman (2018) Untouched NTSC Pre-DVD - DUS Exclusive





General
Format                      : MPEG-PS
File size                   : 1.11 GiB
Duration                    : 2 h 12 min
Overall bit rate mode       : Variable
Overall bit rate            : 1 206 kb/s

Video
ID                          : 224 (0xE0)
Format                      : MPEG Video
Format version              : Version 2
Format profile              : Main@Main
Format settings, BVOP       : No
Format settings, Matrix     : Default
Format settings, GOP        : N=12
Duration                    : 2 h 12 min
Bit rate mode               : Variable
Bit rate                    : 798 kb/s
Maximum bit rate            : 10 000 kb/s
Width                       : 720 pixels
Height                      : 480 pixels
Display aspect ratio        : 3:2
Frame rate                  : 25.000 FPS
Color space                 : YUV
Chroma subsampling          : 4:2:0
Bit depth                   : 8 bits
Scan type                   : Progressive
Compression mode            : Lossy
Bits/(Pixel*Frame)          : 0.092
Time code of first frame    : 00:00:00:00
Time code source            : Group of pictures header
GOP, Open/Closed            : Open
GOP, Open/Closed of first f : Closed
Stream size                 : 754 MiB (66%)

Audio
ID                          : 189 (0xBD)-128 (0x80)
Format                      : AC-3
Format/Info                 : Audio Coding 3
Format settings, Endianness : Big
Muxing mode                 : DVD-Video
Duration                    : 2 h 12 min
Bit rate mode               : Constant
Bit rate                    : 384 kb/s
Channel(s)                  : 2 channels
Channel positions           : Front: L R
Sampling rate               : 48.0 kHz
Frame rate                  : 31.250 FPS (1536 SPF)
Bit depth                   : 16 bits
Compression mode            : Lossy
Stream size                 : 363 MiB (32%)
Service kind                : Complete Main



Padman (2018) Untouched NTSC Pre-DVD - DUS ExclusivePadman (2018) Untouched NTSC Pre-DVD - DUS ExclusivePadman (2018) Untouched NTSC Pre-DVD - DUS ExclusivePadman (2018) Untouched NTSC Pre-DVD - DUS ExclusivePadman (2018) Untouched NTSC Pre-DVD - DUS ExclusivePadman (2018) Untouched NTSC Pre-DVD - DUS ExclusivePadman (2018) Untouched NTSC Pre-DVD - DUS ExclusivePadman (2018) Untouched NTSC Pre-DVD - DUS ExclusivePadman (2018) Untouched NTSC Pre-DVD - DUS Exclusive

SINGLE DIRECT FAST LINKS

http://filefloater.com/72d/Padman.2018.Untouched.NTSC.Pre-DVD-DUS.Exclusive.mpg



https://www.heroupload.com/5f9fad16059ca1fb/Padman.2018.Untouched.NTSC.Pre-DVD-DUS.Exclusive.mpg


Теги: Padman

Dear visitor, you are browsing our website as Guest.
We strongly recommend you to register and login to view hidden contents.

Comments:

Add Comments