Set as default Homepage|Bookmark
 
 
» » Vodka Diaries (2018) Hindi - 700MB - 1CDRip - pDVDRip - x264 - AAC-Exclusive
Advertise

Vodka Diaries (2018) Hindi - 700MB - 1CDRip - pDVDRip - x264 - AAC-Exclusive

Author: wroser on 26-01-2018, 10:27
Vodka Diaries (2018) Hindi - 700MB - 1CDRip - pDVDRip - x264 - AAC-Exclusive






General
Format                      : Matroska
Format version              : Version 4 / Version 2
File size                   : 696 MiB
Duration                    : 1 h 51 min
Overall bit rate            : 873 kb/s
Encoded date                : UTC 2018-01-25 14:31:51
Writing application         : mkvmerge v7.1.0 ('Good Love') 32bit built on Jul 27 2014 12:59:18
Writing library             : libebml v1.3.0 + libmatroska v1.4.1

Video
ID                          : 1
Format                      : AVC
Format/Info                 : Advanced Video Codec
Format profile              : Main@L3
Format settings, CABAC      : Yes
Format settings, RefFrames  : 4 frames
Codec ID                    : V_MPEG4/ISO/AVC
Duration                    : 1 h 51 min
Bit rate                    : 745 kb/s
Width                       : 720 pixels
Height                      : 320 pixels
Display aspect ratio        : 2.25:1
Frame rate mode             : Constant
Frame rate                  : 30.000 FPS
Color space                 : YUV
Chroma subsampling          : 4:2:0
Bit depth                   : 8 bits
Scan type                   : Progressive
Bits/(Pixel*Frame)          : 0.108
Stream size                 : 594 MiB (85%)
Writing library             : x264 core 112
Encoding settings           : cabac=1 / ref=2 / deblock=1:0:0 / analyse=0x1:0x111 / me=hex / subme=6 / psy=1 / psy_rd=1.00:0.00 / mixed_ref=0 / me_range=16 / chroma_me=1 / trellis=0 / 8x8dct=0 / cqm=0 / deadzone=21,11 / fast_pskip=1 / chroma_qp_offset=-2 / threads=12 / sliced_threads=0 / nr=0 / decimate=1 / interlaced=0 / constrained_intra=0 / bframes=2 / b_pyramid=2 / b_adapt=1 / b_bias=0 / direct=1 / weightb=0 / open_gop=0 / weightp=2 / keyint=300 / keyint_min=30 / scenecut=40 / intra_refresh=0 / rc_lookahead=40 / rc=abr / mbtree=1 / bitrate=745 / ratetol=1.0 / qcomp=0.60 / qpmin=3 / qpmax=51 / qpstep=4 / ip_ratio=1.40 / aq=1:1.00
Language                    : Hindi
Default                     : Yes
Forced                      : No
Color range                 : Limited
Color primaries             : BT.601 NTSC
Transfer characteristics    : BT.709
Matrix coefficients         : BT.601

Audio
ID                          : 2
Format                      : AAC
Format/Info                 : Advanced Audio Codec
Format profile              : LC
Codec ID                    : A_AAC
Duration                    : 1 h 51 min
Bit rate                    : 126 kb/s
Channel(s)                  : 2 channels
Channel positions           : Front: L R
Sampling rate               : 44.1 kHz
Frame rate                  : 43.066 FPS (1024 SPF)
Compression mode            : Lossy
Stream size                 : 101 MiB (14%)
Language                    : Hindi
Default                     : Yes
Forced                      : No



Vodka Diaries (2018) Hindi - 700MB - 1CDRip - pDVDRip - x264 - AAC-ExclusiveVodka Diaries (2018) Hindi - 700MB - 1CDRip - pDVDRip - x264 - AAC-ExclusiveVodka Diaries (2018) Hindi - 700MB - 1CDRip - pDVDRip - x264 - AAC-ExclusiveVodka Diaries (2018) Hindi - 700MB - 1CDRip - pDVDRip - x264 - AAC-ExclusiveVodka Diaries (2018) Hindi - 700MB - 1CDRip - pDVDRip - x264 - AAC-ExclusiveVodka Diaries (2018) Hindi - 700MB - 1CDRip - pDVDRip - x264 - AAC-ExclusiveVodka Diaries (2018) Hindi - 700MB - 1CDRip - pDVDRip - x264 - AAC-ExclusiveVodka Diaries (2018) Hindi - 700MB - 1CDRip - pDVDRip - x264 - AAC-ExclusiveVodka Diaries (2018) Hindi - 700MB - 1CDRip - pDVDRip - x264 - AAC-Exclusive


SINGLE DIRECT FAST LINKS


https://www.heroupload.com/258c7c984a336a52/Vodka.Diaries.2018.Hindi.pDVDRip.700MB.x264.1CD.AAC-Exclusive.mkv



http://filefloater.com/4ir/Vodka.Diaries.2018.Hindi.pDVDRip.700MB.x264.1CD.AAC-Exclusive.mkv



Теги: Vodka

Dear visitor, you are browsing our website as Guest.
We strongly recommend you to register and login to view hidden contents.

Comments:

Add Comments