Set as default Homepage|Bookmark
 
 
» » LIE (2017) Uncut 720P HDRip x264 [Dual Audio][Telugu+Hindi(Original)] - KM
Advertise

LIE (2017) Uncut 720P HDRip x264 [Dual Audio][Telugu+Hindi(Original)] - KM

Author: wroser on 27-11-2017, 22:22
LIE (2017) Uncut 720P HDRip x264 [Dual Audio][Telugu+Hindi(Original)] - KM





General
Format                      : Matroska
Format version              : Version 4 / Version 2
File size                   : 1.14 GiB
Duration                    : 2 h 21 min
Overall bit rate            : 1 156 kb/s
Encoded date                : UTC 2017-11-26 16:43:50
Writing application         : mkvmerge v17.0.0 ('Be Ur Friend') 64-bit
Writing library             : libebml v1.3.5 + libmatroska v1.4.8

Video
ID                          : 2
Format                      : AVC
Format/Info                 : Advanced Video Codec
Format profile              : High@L3.1
Format settings, CABAC      : Yes
Format settings, RefFrames  : 4 frames
Codec ID                    : V_MPEG4/ISO/AVC
Duration                    : 2 h 21 min
Bit rate                    : 830 kb/s
Width                       : 1 280 pixels
Height                      : 616 pixels
Display aspect ratio        : 2.078
Frame rate mode             : Constant
Frame rate                  : 25.000 FPS
Color space                 : YUV
Chroma subsampling          : 4:2:0
Bit depth                   : 8 bits
Scan type                   : Progressive
Bits/(Pixel*Frame)          : 0.042
Stream size                 : 837 MiB (72%)
Writing library             : x264 core 148 r2744 b97ae06
Encoding settings           : cabac=1 / ref=3 / deblock=1:0:0 / analyse=0x3:0x113 / me=hex / subme=7 / psy=1 / psy_rd=1.00:0.00 / mixed_ref=1 / me_range=16 / chroma_me=1 / trellis=1 / 8x8dct=1 / cqm=0 / deadzone=21,11 / fast_pskip=1 / chroma_qp_offset=-2 / threads=6 / lookahead_threads=1 / sliced_threads=0 / nr=0 / decimate=1 / interlaced=0 / bluray_compat=0 / constrained_intra=0 / bframes=3 / b_pyramid=2 / b_adapt=1 / b_bias=0 / direct=1 / weightb=1 / open_gop=0 / weightp=2 / keyint=250 / keyint_min=25 / scenecut=40 / intra_refresh=0 / rc_lookahead=40 / rc=2pass / mbtree=1 / bitrate=830 / ratetol=1.0 / qcomp=0.60 / qpmin=0 / qpmax=69 / qpstep=4 / cplxblur=20.0 / qblur=0.5 / ip_ratio=1.40 / aq=1:1.00
Language                    : English
Default                     : Yes
Forced                      : No

Audio #1
ID                          : 1
Format                      : AAC
Format/Info                 : Advanced Audio Codec
Format profile              : LC
Codec ID                    : A_AAC
Duration                    : 2 h 20 min
Bit rate                    : 132 kb/s
Channel(s)                  : 2 channels
Channel positions           : Front: L R
Sampling rate               : 44.1 kHz
Frame rate                  : 43.066 FPS (1024 SPF)
Compression mode            : Lossy
Delay relative to video     : 1 s 939 ms
Stream size                 : 133 MiB (11%)
Language                    : Telugu
Default                     : Yes
Forced                      : No

Audio #2
ID                          : 3
Format                      : AAC
Format/Info                 : Advanced Audio Codec
Format profile              : LC
Codec ID                    : A_AAC
Duration                    : 2 h 21 min
Bit rate                    : 192 kb/s
Channel(s)                  : 2 channels
Channel positions           : Front: L R
Sampling rate               : 44.1 kHz
Frame rate                  : 43.066 FPS (1024 SPF)
Compression mode            : Lossy
Stream size                 : 194 MiB (17%)
Language                    : Hindi
Default                     : No
Forced                      : No



LIE (2017) Uncut 720P HDRip x264 [Dual Audio][Telugu+Hindi(Original)] - KMLIE (2017) Uncut 720P HDRip x264 [Dual Audio][Telugu+Hindi(Original)] - KMLIE (2017) Uncut 720P HDRip x264 [Dual Audio][Telugu+Hindi(Original)] - KMLIE (2017) Uncut 720P HDRip x264 [Dual Audio][Telugu+Hindi(Original)] - KMLIE (2017) Uncut 720P HDRip x264 [Dual Audio][Telugu+Hindi(Original)] - KMLIE (2017) Uncut 720P HDRip x264 [Dual Audio][Telugu+Hindi(Original)] - KMLIE (2017) Uncut 720P HDRip x264 [Dual Audio][Telugu+Hindi(Original)] - KM


SINGLE DIRECT FAST LINKS


http://www.heroupload.com/2ee648c97ad94140/LIE_(2017)_Uncut_720P_HDRip_-Dual_Audio_-_[Telugu+Hindi(Original)]_-x264_AAC_-_1.2GB_-ESubs-_Kingmaker_Exclusive.mkv



Теги: LIE

Dear visitor, you are browsing our website as Guest.
We strongly recommend you to register and login to view hidden contents.

Comments:

Add Comments