Set as default Homepage|Bookmark
 
 
» » Newton (2017) 1080p - WEB-HD - H264 - AAC2.0 - ESub-DDR Exclusive
Advertise

Newton (2017) 1080p - WEB-HD - H264 - AAC2.0 - ESub-DDR Exclusive

Author: wroser on 18-11-2017, 15:04
Newton (2017) 1080p - WEB-HD - H264 - AAC2.0 - ESub-DDR Exclusive







General
Format                      : MPEG-4
Format profile              : Base Media
Codec ID                    : isom (isom/iso2/avc1/mp41)
File size                   : 5.84 GiB
Duration                    : 1 h 44 min
Overall bit rate mode       : Variable
Overall bit rate            : 8 000 kb/s
Movie name                  : Newton (2017)
Performer                   : Comedy Drama
Director                    : Amit Masurkar
Actor                       : Rajkummar Rao, Pankaj Tripathi, Anjali Patil
Screenplay by               : Amit Masurkar, Mayank Tewari
Producer                    : Manish Mundra
Production studio           : Drishyam Films
Genre                       : Comedy Drama
ContentType                 : Short Film
Recorded date               : 2017
Tagged date                 : UTC 2017-11-18 07:33:20
Writing application         : Lavf54.63.104
Cover                       : Yes
Lyrics                      : A government clerk on election duty in the conflict ridden jungle of Central India tries his best to conduct free and fair voting despite the apathy of security forces and the looming fear of guerrilla attacks by communist rebels.

Video
ID                          : 1
Format                      : AVC
Format/Info                 : Advanced Video Codec
Format profile              : Main@L4
Format settings             : CABAC / 3 Ref Frames
Format settings, CABAC      : Yes
Format settings, RefFrames  : 3 frames
Codec ID                    : avc1
Codec ID/Info               : Advanced Video Coding
Duration                    : 1 h 44 min
Bit rate                    : 7 724 kb/s
Width                       : 1 920 pixels
Height                      : 1 080 pixels
Display aspect ratio        : 16:9
Frame rate mode             : Constant
Frame rate                  : 25.000 FPS
Color space                 : YUV
Chroma subsampling          : 4:2:0
Bit depth                   : 8 bits
Scan type                   : Progressive
Bits/(Pixel*Frame)          : 0.149
Stream size                 : 5.64 GiB (97%)

Audio
ID                          : 2
Format                      : AAC
Format/Info                 : Advanced Audio Codec
Format profile              : LC
Codec ID                    : mp4a-40-2
Duration                    : 1 h 44 min
Bit rate mode               : Variable
Bit rate                    : 258 kb/s
Maximum bit rate            : 343 kb/s
Channel(s)                  : 2 channels
Channel positions           : Front: L R
Sampling rate               : 44.1 kHz
Frame rate                  : 43.066 FPS (1024 SPF)
Compression mode            : Lossy
Stream size                 : 193 MiB (3%)
Language                    : Hindi
Default                     : Yes


Newton (2017) 1080p - WEB-HD - H264 - AAC2.0 - ESub-DDR Exclusive
Newton (2017) 1080p - WEB-HD - H264 - AAC2.0 - ESub-DDR Exclusive
Newton (2017) 1080p - WEB-HD - H264 - AAC2.0 - ESub-DDR Exclusive
Newton (2017) 1080p - WEB-HD - H264 - AAC2.0 - ESub-DDR Exclusive
Newton (2017) 1080p - WEB-HD - H264 - AAC2.0 - ESub-DDR Exclusive
Newton (2017) 1080p - WEB-HD - H264 - AAC2.0 - ESub-DDR Exclusive
Newton (2017) 1080p - WEB-HD - H264 - AAC2.0 - ESub-DDR Exclusive
Newton (2017) 1080p - WEB-HD - H264 - AAC2.0 - ESub-DDR Exclusive

SINGLE DIRECT FAST LINKS

http://www.heroupload.com/91e769206d66b1ad/Newton.2017.1080p.WEBHD.H264.AAC2.0.ESub-DDR.mp4


http://filefloater.com/9hb/Newton.2017.1080p.WEBHD.H264.AAC2.0.ESub-DDR.mp4

1GB LINKS

http://www.heroupload.com/4572d7d9b97d4066/Newton.2017.1080p.WEBHD.H264.AAC2.0.ESub-DDR.part1.rar
http://www.heroupload.com/b4703338214cdb42/Newton.2017.1080p.WEBHD.H264.AAC2.0.ESub-DDR.part2.rar
http://www.heroupload.com/25ea2f5562a0be25/Newton.2017.1080p.WEBHD.H264.AAC2.0.ESub-DDR.part3.rar
http://www.heroupload.com/b0fe0594c46b8fad/Newton.2017.1080p.WEBHD.H264.AAC2.0.ESub-DDR.part4.rar
http://www.heroupload.com/e39bc965a4e79b8a/Newton.2017.1080p.WEBHD.H264.AAC2.0.ESub-DDR.part5.rar
http://www.heroupload.com/de6c3732298b5925/Newton.2017.1080p.WEBHD.H264.AAC2.0.ESub-DDR.part6.rar
http://www.heroupload.com/86707d4d4b5ead61/Newton.2017.1080p.WEBHD.H264.AAC2.0.ESub-DDR.srt



http://filefloater.com/9hc/Newton.2017.1080p.WEBHD.H264.AAC2.0.ESub-DDR.part1.rar
http://filefloater.com/9hd/Newton.2017.1080p.WEBHD.H264.AAC2.0.ESub-DDR.part2.rar
http://filefloater.com/9he/Newton.2017.1080p.WEBHD.H264.AAC2.0.ESub-DDR.part3.rar
http://filefloater.com/9hf/Newton.2017.1080p.WEBHD.H264.AAC2.0.ESub-DDR.part4.rar
http://filefloater.com/9hg/Newton.2017.1080p.WEBHD.H264.AAC2.0.ESub-DDR.part5.rar
http://filefloater.com/9hh/Newton.2017.1080p.WEBHD.H264.AAC2.0.ESub-DDR.part6.rar
http://filefloater.com/9hi/Newton.2017.1080p.WEBHD.H264.AAC2.0.ESub-DDR.srt


Теги: Newton

Dear visitor, you are browsing our website as Guest.
We strongly recommend you to register and login to view hidden contents.

Comments:

Add Comments