Set as default Homepage|Bookmark
 
 
» » Newton (2017) 720p - WEB-HD - AVC - AAC-ExDR ExClusive 1st ON Net
Advertise

Newton (2017) 720p - WEB-HD - AVC - AAC-ExDR ExClusive 1st ON Net

Author: wroser on 18-11-2017, 01:50
Newton (2017) 720p - WEB-HD - AVC - AAC-ExDR ExClusive 1st ON Net

Newton (2017) 720p - WEB-HD - AVC - AAC-ExDR ExClusive 1st ON Net : 3.25 GiB





Format                      : MPEG-4
Format profile              : Base Media
Codec ID                    : isom (isom)
File size                   : 3.25 GiB
Duration                    : 1 h 44 min
Overall bit rate mode       : Variable
Overall bit rate            : 4 453 kb/s
Encoded date                : UTC 2017-11-16 21:21:45
Tagged date                 : UTC 2017-11-16 21:21:45

Video
ID                          : 1
Format                      : MPEG-4 Visual
Format profile              : Simple@L1
Format settings, BVOP       : No
Format settings, QPel       : No
Format settings, GMC        : No warppoints
Format settings, Matrix     : Default (H.263)
Codec ID                    : mp4v-20
Duration                    : 1 h 44 min
Bit rate mode               : Constant
Bit rate                    : 4 223 kb/s
Width                       : 1 366 pixels
Height                      : 764 pixels
Display aspect ratio        : 16:9
Frame rate mode             : Variable
Frame rate                  : 20.165 FPS
Minimum frame rate          : 6.000 FPS
Maximum frame rate          : 30.000 FPS
Color space                 : YUV
Chroma subsampling          : 4:2:0
Bit depth                   : 8 bits
Scan type                   : Progressive
Compression mode            : Lossy
Bits/(Pixel*Frame)          : 0.201
Stream size                 : 3.08 GiB (95%)
Writing library             : Lavc56.13.100
Tagged date                 : UTC 2017-11-16 21:22:09

Audio
ID                          : 2
Format                      : MPEG Audio
Format version              : Version 1
Format profile              : Layer 3
Codec ID                    : mp4a-6B
Duration                    : 1 h 44 min
Bit rate mode               : Variable
Bit rate                    : 224 kb/s
Channel(s)                  : 2 channels
Sampling rate               : 44.1 kHz
Compression mode            : Lossy
Stream size                 : 169 MiB (5%)
Writing library             : LAME3.96.1
Default                     : Yes
Alternate group             : 1
Tagged date                 : UTC 2017-11-16 21:22:09



Newton (2017) 720p - WEB-HD - AVC - AAC-ExDR ExClusive 1st ON NetNewton (2017) 720p - WEB-HD - AVC - AAC-ExDR ExClusive 1st ON NetNewton (2017) 720p - WEB-HD - AVC - AAC-ExDR ExClusive 1st ON NetNewton (2017) 720p - WEB-HD - AVC - AAC-ExDR ExClusive 1st ON NetNewton (2017) 720p - WEB-HD - AVC - AAC-ExDR ExClusive 1st ON NetNewton (2017) 720p - WEB-HD - AVC - AAC-ExDR ExClusive 1st ON NetNewton (2017) 720p - WEB-HD - AVC - AAC-ExDR ExClusive 1st ON NetNewton (2017) 720p - WEB-HD - AVC - AAC-ExDR ExClusive 1st ON NetNewton (2017) 720p - WEB-HD - AVC - AAC-ExDR ExClusive 1st ON Net


SINGLE DIRECT FAST LINKS
http://www.heroupload.com/c257b1bc4ed7f6aa/Newton.2017.720p.WEB-HD.AVC.AAC.2.0-Team.ExDR.ExClusive.mp4


http://filefloater.com/9gp/Newton.2017.720p.WEB-HD.AVC.AAC.2.0-Team.ExDR.ExClusive.mp4

700MB LINKS

http://www.heroupload.com/4ea47b99b3b8f2f1/Newton.2017.720p.WEB-HD.AVC.AAC.2.0-Team.ExDR.ExClusive.part1.rar
http://www.heroupload.com/77b4f9b51188a3a3/Newton.2017.720p.WEB-HD.AVC.AAC.2.0-Team.ExDR.ExClusive.part2.rar
http://www.heroupload.com/1c73f92af966a036/Newton.2017.720p.WEB-HD.AVC.AAC.2.0-Team.ExDR.ExClusive.part3.rar
http://www.heroupload.com/62908d7928b9c0f9/Newton.2017.720p.WEB-HD.AVC.AAC.2.0-Team.ExDR.ExClusive.part4.rar
http://www.heroupload.com/c880e732537703dc/Newton.2017.720p.WEB-HD.AVC.AAC.2.0-Team.ExDR.ExClusive.part5.rar



http://filefloater.com/444/Newton.2017.720p.WEB-HD.AVC.AAC.2.0-Team.ExDR.ExClusive.part1.rar
http://filefloater.com/445/Newton.2017.720p.WEB-HD.AVC.AAC.2.0-Team.ExDR.ExClusive.part2.rar
http://filefloater.com/446/Newton.2017.720p.WEB-HD.AVC.AAC.2.0-Team.ExDR.ExClusive.part3.rar
http://filefloater.com/447/Newton.2017.720p.WEB-HD.AVC.AAC.2.0-Team.ExDR.ExClusive.part4.rar
http://filefloater.com/448/Newton.2017.720p.WEB-HD.AVC.AAC.2.0-Team.ExDR.ExClusive.part5.rar


Теги: Newton

Dear visitor, you are browsing our website as Guest.
We strongly recommend you to register and login to view hidden contents.

Comments:

Add Comments