Set as default Homepage|Bookmark
 
 
» » Chalo (2018) Hindi - 1080p - WEB-HD - AVC - AAC-WAM Exclusive
Advertise

Chalo (2018) Hindi - 1080p - WEB-HD - AVC - AAC-WAM Exclusive

Author: wroser on 8-10-2018, 20:27
Chalo (2018) Hindi - 1080p - WEB-HD - AVC - AAC-WAM Exclusive





Format                      : MPEG-4
Format profile              : Base Media
Codec ID                    : isom (isom/iso2/avc1/mp41)
File size                   : 2.17 GiB
Duration                    : 2 h 1 min
Overall bit rate            : 2 562 kb/s
Writing application         : Lavf58.9.100

Video
ID                          : 1
Format                      : AVC
Format/Info                 : Advanced Video Codec
Format profile              : High@L4
Format settings, CABAC      : Yes
Format settings, RefFrames  : 2 frames
Codec ID                    : avc1
Codec ID/Info               : Advanced Video Coding
Duration                    : 2 h 1 min
Bit rate                    : 2 430 kb/s
Width                       : 1 920 pixels
Height                      : 1 080 pixels
Display aspect ratio        : 16:9
Frame rate mode             : Constant
Frame rate                  : 25.000 FPS
Color space                 : YUV
Chroma subsampling          : 4:2:0
Bit depth                   : 8 bits
Scan type                   : Progressive
Bits/(Pixel*Frame)          : 0.047
Stream size                 : 2.05 GiB (95%)
Color range                 : Limited
Color primaries             : BT.709
Transfer characteristics    : BT.709
Matrix coefficients         : BT.709

Audio
ID                          : 2
Format                      : AAC
Format/Info                 : Advanced Audio Codec
Format profile              : LC
Codec ID                    : 40
Duration                    : 2 h 1 min
Bit rate mode               : Constant
Bit rate                    : 126 kb/s
Channel(s)                  : 2 channels
Channel positions           : Front: L R
Sampling rate               : 44.1 kHz
Frame rate                  : 43.066 FPS (1024 SPF)
Compression mode            : Lossy
Stream size                 : 109 MiB (5%)
Default                     : Yes
Alternate group             : 1



Chalo (2018) Hindi - 1080p - WEB-HD - AVC - AAC-WAM ExclusiveChalo (2018) Hindi - 1080p - WEB-HD - AVC - AAC-WAM ExclusiveChalo (2018) Hindi - 1080p - WEB-HD - AVC - AAC-WAM ExclusiveChalo (2018) Hindi - 1080p - WEB-HD - AVC - AAC-WAM ExclusiveChalo (2018) Hindi - 1080p - WEB-HD - AVC - AAC-WAM Exclusive


SINGLE DIRECT FAST LINKS
http://www.heroupload.us/e487a342861c7860/CHALO.2018.Hindi.1080p.WEB-HD.AVC.AAC-WAM.mp4


http://filefloater.com/1KY2/CHALO.2018.Hindi.1080p.WEB-HD.AVC.AAC-WAM.mp4

700MB LINKS


http://www.heroupload.us/698968c8ad291764/CHALO.2018.Hindi.1080p.WEB-HD.AVC.AAC-WAM.part1.rar
http://www.heroupload.us/e8267a11d04837ad/CHALO.2018.Hindi.1080p.WEB-HD.AVC.AAC-WAM.part2.rar
http://www.heroupload.us/2e5e3ec5318c280e/CHALO.2018.Hindi.1080p.WEB-HD.AVC.AAC-WAM.part3.rar
http://www.heroupload.us/25fcf2d5e963f958/CHALO.2018.Hindi.1080p.WEB-HD.AVC.AAC-WAM.part4.rar



http://filefloater.com/1KY3/CHALO.2018.Hindi.1080p.WEB-HD.AVC.AAC-WAM.part1.rar
http://filefloater.com/1KY4/CHALO.2018.Hindi.1080p.WEB-HD.AVC.AAC-WAM.part2.rar
http://filefloater.com/1KY5/CHALO.2018.Hindi.1080p.WEB-HD.AVC.AAC-WAM.part3.rar
http://filefloater.com/1KY6/CHALO.2018.Hindi.1080p.WEB-HD.AVC.AAC-WAM.part4.rar



Buy Premium From My Links & Support Me

Теги: Chalo

Dear visitor, you are browsing our website as Guest.
We strongly recommend you to register and login to view hidden contents.

Comments:

Add Comments
Reply
  • Tweple

  • 10 October 2018 15:55
  • Group: Guests
  • ICQ:
  • Registration: --
  • Status:
  • 0 Comment
  • 0 Article
^
Так бывает. Давайте обсудим этот вопрос.

__________________________________
скан паспорта

Посвящается всем, кто ждал хорошего качества.

__________________________________
бесплатные аккаунты вк

Я конечно, прошу прощения, но это совсем другое, а не то, что мне нужно.

__________________________________
как взломать vk

Забавный момент

__________________________________
взлом wifi

действительно красивые и не только

__________________________________
скан паспорта рф

Поcетите этот ресурс

__________________________________
бесплатные аккаунты вк

Я думаю, что это хорошая идея.

__________________________________
взломать страницу вк бесплатно

Поcетите этот ресурс

__________________________________
взлом wifi

Прошу прощения, что вмешался... Но мне очень близка эта тема. Готов помочь.

__________________________________
скан паспорта

пасибо, вкусно!

__________________________________
раздача аккаунтов вк

Поcетите этот ресурс

__________________________________
как взломать vk

Вы допускаете ошибку. Давайте обсудим это. Пишите мне в PM, поговорим.

__________________________________
взлом пароля wifi