Set as default Homepage|Bookmark
 
 
» » Chalo (2018) Hindi - 720p -WEB-HD - AVC - AAC-WAM Exclusive
Advertise

Chalo (2018) Hindi - 720p -WEB-HD - AVC - AAC-WAM Exclusive

Author: wroser on 8-10-2018, 20:24
Chalo (2018) Hindi - 720p -WEB-HD - AVC - AAC-WAM Exclusive





Format                      : MPEG-4
Format profile              : Base Media / Version 2
Codec ID                    : mp42 (isom/mp42)
File size                   : 1.13 GiB
Duration                    : 2 h 1 min
Overall bit rate mode       : Variable
Overall bit rate            : 1 337 kb/s
Encoded date                : UTC 2018-10-07 15:15:41
Tagged date                 : UTC 2018-10-07 15:15:41
gsst                        : 0
gstd                        : 7261088

Video
ID                          : 1
Format                      : AVC
Format/Info                 : Advanced Video Codec
Format profile              : Main@L3.1
Format settings, CABAC      : Yes
Format settings, RefFrames  : 3 frames
Codec ID                    : avc1
Codec ID/Info               : Advanced Video Coding
Duration                    : 2 h 1 min
Bit rate                    : 1 208 kb/s
Width                       : 1 280 pixels
Height                      : 720 pixels
Display aspect ratio        : 16:9
Frame rate mode             : Constant
Frame rate                  : 25.000 FPS
Color space                 : YUV
Chroma subsampling          : 4:2:0
Bit depth                   : 8 bits
Scan type                   : Progressive
Bits/(Pixel*Frame)          : 0.052
Stream size                 : 1.02 GiB (90%)
Title                       : ISO Media file produced by Google Inc. Created on: 10/07/2018.
Encoded date                : UTC 2018-10-07 15:15:41
Tagged date                 : UTC 2018-10-07 15:15:41
Color range                 : Limited
Color primaries             : BT.709
Transfer characteristics    : BT.709
Matrix coefficients         : BT.709

Audio
ID                          : 2
Format                      : AAC
Format/Info                 : Advanced Audio Codec
Format profile              : LC
Codec ID                    : 40
Duration                    : 2 h 1 min
Bit rate mode               : Variable
Bit rate                    : 126 kb/s
Channel(s)                  : 2 channels
Channel positions           : Front: L R
Sampling rate               : 44.1 kHz
Frame rate                  : 43.066 FPS (1024 SPF)
Compression mode            : Lossy
Stream size                 : 109 MiB (9%)
Title                       : ISO Media file produced by Google Inc. Created on: 10/07/2018.
Encoded date                : UTC 2018-10-07 15:15:41
Tagged date                 : UTC 2018-10-07 15:15:41



Chalo (2018) Hindi - 720p -WEB-HD - AVC - AAC-WAM ExclusiveChalo (2018) Hindi - 720p -WEB-HD - AVC - AAC-WAM ExclusiveChalo (2018) Hindi - 720p -WEB-HD - AVC - AAC-WAM ExclusiveChalo (2018) Hindi - 720p -WEB-HD - AVC - AAC-WAM ExclusiveChalo (2018) Hindi - 720p -WEB-HD - AVC - AAC-WAM Exclusive

SINGLE DIRECT FAST LINKS
http://www.heroupload.us/3b8cabd86a00e9b3/CHALO.2018.Hindi.720p.WEB-HD.AVC.AAC-WAM.mp4


http://filefloater.com/1KY1/CHALO.2018.Hindi.720p.WEB-HD.AVC.AAC-WAM.mp4



Buy Premium From My Links & Support Me

Теги: Chalo

Dear visitor, you are browsing our website as Guest.
We strongly recommend you to register and login to view hidden contents.

Comments:

Add Comments