Set as default Homepage|Bookmark
 
 
» » Karwaan (2018) 720p - HDRip - AVC - DD5.1-BollywoodA2z
Advertise

Karwaan (2018) 720p - HDRip - AVC - DD5.1-BollywoodA2z

Author: wroser on 8-10-2018, 18:20
Karwaan (2018) 720p - HDRip - AVC - DD5.1-BollywoodA2z



General
Format                                   : Matroska
Format version                           : Version 4 / Version 2
File size                                : 1.36 GiB
Duration                                 : 1 h 53 min
Overall bit rate                         : 1 707 kb/s

Video
ID                                       : 1
Format                                   : AVC
Format/Info                              : Advanced Video Codec
Duration                                 : 1 h 53 min
Bit rate                                 : 1 500 kb/s
Width                                    : 1 280 pixels
Height                                   : 542 pixels
Display aspect ratio                     : 2.35:1
Original display aspect ratio            : 2.35:1
Frame rate mode                          : Constant
Frame rate                               : 24.000 FPS
Color space                              : YUV
Chroma subsampling                       : 4:2:0
Bit depth                                : 8 bits
Scan type                                : Progressive
Bits/(Pixel*Frame)                       : 0.090
Stream size                              : 1.18 GiB (87%)
Title                                    : ~Ranvijay~

Audio
ID                                       : 2
Format                                   : AC-3
Format/Info                              : Audio Coding 3
Codec ID                                 : A_AC3
Duration                                 : 1 h 53 min
Bit rate mode                            : Constant
Bit rate                                 : 224 kb/s
Channel(s)                               : 6 channels
Channel positions                        : Front: L C R, Side: L R, LFE
Sampling rate                            : 48.0 kHz
Frame rate                               : 31.250 FPS (1536 SPF)
Bit depth                                : 16 bits
Compression mode                         : Lossy
Delay relative to video                  : -5 ms
Stream size                              : 182 MiB (13%)
Title                                    : ~Ranvijay~
Language                                 : Hindi
Service kind                             : Complete Main
Default                                  : Yes
Forced                                   : Yes



Karwaan (2018) 720p - HDRip - AVC - DD5.1-BollywoodA2z
Karwaan (2018) 720p - HDRip - AVC - DD5.1-BollywoodA2z
Karwaan (2018) 720p - HDRip - AVC - DD5.1-BollywoodA2z
Karwaan (2018) 720p - HDRip - AVC - DD5.1-BollywoodA2z
Karwaan (2018) 720p - HDRip - AVC - DD5.1-BollywoodA2z
Karwaan (2018) 720p - HDRip - AVC - DD5.1-BollywoodA2z
Karwaan (2018) 720p - HDRip - AVC - DD5.1-BollywoodA2z
Karwaan (2018) 720p - HDRip - AVC - DD5.1-BollywoodA2z
Karwaan (2018) 720p - HDRip - AVC - DD5.1-BollywoodA2z

SINGLE DIRECT FAST LINKS

http://www.heroupload.us/f42a1e86d80e6625/Karwaan.2018.Hindi.720p.WEB-RIP.x264.DD5.1-BollywoodA2z.mkv



http://filefloater.com/310E/Karwaan.2018.Hindi.720p.WEB-RIP.x264.DD5.1-BollywoodA2z.mkv





Buy Premium From My Links & Support Me

Теги: Karwaan

Dear visitor, you are browsing our website as Guest.
We strongly recommend you to register and login to view hidden contents.

Comments:

Add Comments