Set as default Homepage|Bookmark
 
 
» » Nawabzaade (2018) 720p - HDRip - x264 - AAC-BollywoodA2z
Advertise

Nawabzaade (2018) 720p - HDRip - x264 - AAC-BollywoodA2z

Author: wroser on 8-10-2018, 17:31
Nawabzaade (2018) 720p - HDRip - x264 - AAC-BollywoodA2z



General
Format                                   : Matroska
Format version                           : Version 4 / Version 2
File size                                : 886 MiB
Duration                                 : 1 h 49 min
Overall bit rate                         : 1 126 kb/s

Video
ID                                       : 1
Format                                   : AVC
Format/Info                              : Advanced Video Codec
Format profile                           : High@L4.1
Format settings                          : CABAC / 4 Ref Frames
Format settings, CABAC                   : Yes
Format settings, RefFrames               : 4 frames
Codec ID                                 : V_MPEG4/ISO/AVC
Duration                                 : 1 h 49 min
Bit rate                                 : 1 000 kb/s
Width                                    : 1 280 pixels
Height                                   : 532 pixels
Display aspect ratio                     : 2.40:1
Frame rate mode                          : Constant
Frame rate                               : 24.000 FPS
Color space                              : YUV
Chroma subsampling                       : 4:2:0
Bit depth                                : 8 bits
Scan type                                : Progressive
Bits/(Pixel*Frame)                       : 0.061
Stream size                              : 783 MiB (88%)
Writing library                          : x264 core 155 r2901 7d0ff22
Default                                  : Yes
Forced                                   : No

Audio
ID                                       : 2
Format                                   : AAC
Format/Info                              : Advanced Audio Codec
Format profile                           : LC
Codec ID                                 : A_AAC-2
Duration                                 : 1 h 49 min
Bit rate                                 : 128 kb/s
Channel(s)                               : 2 channels
Channel positions                        : Front: L R
Sampling rate                            : 48.0 kHz
Frame rate                               : 46.875 FPS (1024 SPF)
Compression mode                         : Lossy
Stream size                              : 101 MiB (11%)
Language                                 : Hindi
Default                                  : Yes
Forced                                   : No

Text
ID                                       : 3
Format                                   : UTF-8
Codec ID                                 : S_TEXT/UTF8
Codec ID/Info                            : UTF-8 Plain Text
Duration                                 : 1 h 48 min
Bit rate                                 : 66 b/s
Count of elements                        : 1649
Stream size                              : 53.0 KiB (0%)
Default                                  : Yes
Forced                                   : No

Nawabzaade (2018) 720p - HDRip - x264 - AAC-BollywoodA2zNawabzaade (2018) 720p - HDRip - x264 - AAC-BollywoodA2zNawabzaade (2018) 720p - HDRip - x264 - AAC-BollywoodA2zNawabzaade (2018) 720p - HDRip - x264 - AAC-BollywoodA2zNawabzaade (2018) 720p - HDRip - x264 - AAC-BollywoodA2zNawabzaade (2018) 720p - HDRip - x264 - AAC-BollywoodA2z


SINGLE DIRECT FAST LINKS

http://www.heroupload.us/1cffdd79fdab9c92/Nawabzaade.2018.Hindi.720p.WEB-DL.x264.ESub-BollywoodA2z.mkv



http://filefloater.com/310G/Nawabzaade.2018.Hindi.720p.WEB-DL.x264.ESub-BollywoodA2z.mkv



Buy Premium From My Links & Support Me

Теги: Nawabzaade

Dear visitor, you are browsing our website as Guest.
We strongly recommend you to register and login to view hidden contents.

Comments:

Add Comments