Set as default Homepage|Bookmark
 
 
» » Shaitan (2018) Hindi - 1080p - WEB-HD - AVC - AAC-GM Exclusive
Advertise

Shaitan (2018) Hindi - 1080p - WEB-HD - AVC - AAC-GM Exclusive

Author: wroser on 8-09-2018, 18:12
Shaitan (2018) Hindi - 1080p - WEB-HD - AVC - AAC-GM Exclusive





Format                      : MPEG-4
Format profile              : Base Media
Codec ID                    : isom (isom/iso2/avc1/mp41)
File size                   : 788 MiB
Duration                    : 1 h 50 min
Overall bit rate            : 995 kb/s
Writing application         : Lavf58.9.100

Video
ID                          : 1
Format                      : AVC
Format/Info                 : Advanced Video Codec
Format profile              : High@L4
Format settings, CABAC      : Yes
Format settings, RefFrames  : 3 frames
Codec ID                    : avc1
Codec ID/Info               : Advanced Video Coding
Duration                    : 1 h 50 min
Bit rate                    : 863 kb/s
Width                       : 1 920 pixels
Height                      : 1 080 pixels
Display aspect ratio        : 16:9
Frame rate mode             : Constant
Frame rate                  : 25.000 FPS
Color space                 : YUV
Chroma subsampling          : 4:2:0
Bit depth                   : 8 bits
Scan type                   : Progressive
Bits/(Pixel*Frame)          : 0.017
Stream size                 : 683 MiB (87%)
Color range                 : Limited
Color primaries             : BT.709
Transfer characteristics    : BT.709
Matrix coefficients         : BT.709

Audio
ID                          : 2
Format                      : AAC
Format/Info                 : Advanced Audio Codec
Format profile              : LC
Codec ID                    : 40
Duration                    : 1 h 50 min
Bit rate mode               : Constant
Bit rate                    : 126 kb/s
Channel(s)                  : 2 channels
Channel positions           : Front: L R
Sampling rate               : 44.1 kHz
Frame rate                  : 43.066 FPS (1024 SPF)
Compression mode            : Lossy
Stream size                 : 99.4 MiB (13%)
Language                    : English
Default                     : Yes
Alternate group             : 1



Shaitan (2018) Hindi - 1080p - WEB-HD - AVC - AAC-GM Exclusive
SINGLE DIRECT FAST LINKS
http://www.heroupload.us/4d860c156540b26b/Shaitan.Saithan.2018.Hindi.1080p.WEB-HD.AVC.AAC-GM.mp4


http://filefloater.com/2AL1/Shaitan.Saithan.2018.Hindi.1080p.WEB-HD.AVC.AAC-GM.mp4



Buy Premium From My Links & Support Me

Теги: Shaitan

Dear visitor, you are browsing our website as Guest.
We strongly recommend you to register and login to view hidden contents.

Comments:

Add Comments
Reply
  • Group: Guests
  • ICQ:
  • Registration: --
  • Status:
  • 0 Comment
  • 0 Article
^
I like to read such articles and to search for them I use http://onlinecasinohex.ca/