Set as default Homepage|Bookmark
 
 
» » Garbage (2018) 1080p - WEB-HD - AVC - DD5.1 - ESub-DUS Exclusive 18+
Advertise

Garbage (2018) 1080p - WEB-HD - AVC - DD5.1 - ESub-DUS Exclusive 18+

Author: wroser on 1-09-2018, 15:15
Garbage (2018) 1080p - WEB-HD - AVC - DD5.1 - ESub-DUS Exclusive 18+






Format                                   : Matroska
Format version                           : Version 4 / Version 2
File size                                : 3.11 GiB
Duration                                 : 1 h 49 min
Overall bit rate                         : 4 072 kb/s
Encoded date                             : UTC 2018-09-01 08:44:09
Writing application                      : mkvmerge v26.0.0 ('In The Game') 64-bit
Writing library                          : libebml v1.3.6 + libmatroska v1.4.9

Video
ID                                       : 1
Format                                   : AVC
Format/Info                              : Advanced Video Codec
Format profile                           : Main@L4
Format settings                          : CABAC / 3 Ref Frames
Format settings, CABAC                   : Yes
Format settings, RefFrames               : 3 frames
Codec ID                                 : V_MPEG4/ISO/AVC
Duration                                 : 1 h 49 min
Bit rate                                 : 3 430 kb/s
Width                                    : 1 920 pixels
Height                                   : 1 080 pixels
Display aspect ratio                     : 16:9
Frame rate mode                          : Constant
Frame rate                               : 25.000 FPS
Color space                              : YUV
Chroma subsampling                       : 4:2:0
Bit depth                                : 8 bits
Scan type                                : Progressive
Bits/(Pixel*Frame)                       : 0.066
Stream size                              : 2.62 GiB (84%)
Default                                  : Yes
Forced                                   : No

Audio
ID                                       : 2
Format                                   : E-AC-3
Format/Info                              : Enhanced Audio Coding 3
Codec ID                                 : A_EAC3
Duration                                 : 1 h 49 min
Bit rate mode                            : Constant
Bit rate                                 : 640 kb/s
Channel(s)                               : 6 channels
Channel positions                        : Front: L C R, Side: L R, LFE
Sampling rate                            : 48.0 kHz
Frame rate                               : 187.500 FPS (256 SPF)
Compression mode                         : Lossy
Stream size                              : 500 MiB (16%)
Title                                    : 5.1 Audio - 640kbps
Language                                 : Hindi
Service kind                             : Complete Main
Default                                  : Yes
Forced                                   : No

Text
ID                                       : 3
Format                                   : UTF-8
Codec ID                                 : S_TEXT/UTF8
Codec ID/Info                            : UTF-8 Plain Text
Duration                                 : 1 h 45 min
Bit rate                                 : 13 b/s
Count of elements                        : 379
Stream size                              : 10.7 KiB (0%)
Language                                 : English
Default                                  : Yes
Forced                                   : No


Garbage (2018) 1080p - WEB-HD - AVC - DD5.1 - ESub-DUS Exclusive 18+Garbage (2018) 1080p - WEB-HD - AVC - DD5.1 - ESub-DUS Exclusive 18+Garbage (2018) 1080p - WEB-HD - AVC - DD5.1 - ESub-DUS Exclusive 18+Garbage (2018) 1080p - WEB-HD - AVC - DD5.1 - ESub-DUS Exclusive 18+Garbage (2018) 1080p - WEB-HD - AVC - DD5.1 - ESub-DUS Exclusive 18+Garbage (2018) 1080p - WEB-HD - AVC - DD5.1 - ESub-DUS Exclusive 18+

SINGLE DIRECT FAST LINKS
http://www.heroupload.us/35a50e73318f3aa1/Garbage.2018.1080p.WEBHD.DD5.1.ESub-DUS.mkv


http://filefloater.com/Uzl/Garbage.2018.1080p.WEBHD.DD5.1.ESub-DUS.mkv

1GB LINKS

http://www.heroupload.us/d5a65e15ec15b499/Garbage.2018.1080p.WEBHD.DD5.1.ESub-DUS.part1.rar
http://www.heroupload.us/e636d11e54fa1863/Garbage.2018.1080p.WEBHD.DD5.1.ESub-DUS.part2.rar
http://www.heroupload.us/d3871a63895acacc/Garbage.2018.1080p.WEBHD.DD5.1.ESub-DUS.part3.rar
http://www.heroupload.us/9cf30366e18256ef/Garbage.2018.1080p.WEBHD.DD5.1.ESub-DUS.part4.rar



http://filefloater.com/Uzm/Garbage.2018.1080p.WEBHD.DD5.1.ESub-DUS.part1.rar
http://filefloater.com/Uzn/Garbage.2018.1080p.WEBHD.DD5.1.ESub-DUS.part2.rar
http://filefloater.com/Uzo/Garbage.2018.1080p.WEBHD.DD5.1.ESub-DUS.part3.rar
http://filefloater.com/Uzp/Garbage.2018.1080p.WEBHD.DD5.1.ESub-DUS.part4.rar


Buy Premium From My Links & Support Me

Теги: Garbage

Dear visitor, you are browsing our website as Guest.
We strongly recommend you to register and login to view hidden contents.

Comments:

Add Comments