Set as default Homepage|Bookmark
 
 
» » Once Again (2018) 720p - WEB-DL - AVC - DD5.1 - Esubs-TT Exclusive
Advertise

Once Again (2018) 720p - WEB-DL - AVC - DD5.1 - Esubs-TT Exclusive

Author: wroser on 1-09-2018, 09:04
Once Again (2018) 720p - WEB-DL - AVC - DD5.1 - Esubs-TT Exclusive





Format                      : MPEG-4
Format profile              : Base Media
Codec ID                    : isom (isom/iso2/avc1/mp41)
File size                   : 1.26 GiB
Duration                    : 1 h 41 min
Overall bit rate            : 1 781 kb/s
Writing application         : Lavf58.12.100

Video
ID                          : 1
Format                      : AVC
Format/Info                 : Advanced Video Codec
Format profile              : Main@L3.1
Format settings, CABAC      : Yes
Format settings, RefFrames  : 3 frames
Codec ID                    : avc1
Codec ID/Info               : Advanced Video Coding
Duration                    : 1 h 41 min
Bit rate                    : 1 390 kb/s
Width                       : 1 280 pixels
Height                      : 720 pixels
Display aspect ratio        : 16:9
Frame rate mode             : Constant
Frame rate                  : 24.000 FPS
Color space                 : YUV
Chroma subsampling          : 4:2:0
Bit depth                   : 8 bits
Scan type                   : Progressive
Bits/(Pixel*Frame)          : 0.063
Stream size                 : 1 008 MiB (78%)

Audio
ID                          : 2
Format                      : AC-3
Format/Info                 : Audio Coding 3
Format settings, Endianness : Big
Codec ID                    : ac-3
Duration                    : 1 h 41 min
Bit rate mode               : Constant
Bit rate                    : 384 kb/s
Channel(s)                  : 6 channels
Channel positions           : Front: L C R, Side: L R, LFE
Sampling rate               : 48.0 kHz
Frame rate                  : 31.250 FPS (1536 SPF)
Bit depth                   : 16 bits
Compression mode            : Lossy
Stream size                 : 279 MiB (22%)
Service kind                : Complete Main
Default                     : Yes
Alternate group             : 1


Once Again (2018) 720p - WEB-DL - AVC - DD5.1 - Esubs-TT ExclusiveOnce Again (2018) 720p - WEB-DL - AVC - DD5.1 - Esubs-TT ExclusiveOnce Again (2018) 720p - WEB-DL - AVC - DD5.1 - Esubs-TT ExclusiveOnce Again (2018) 720p - WEB-DL - AVC - DD5.1 - Esubs-TT ExclusiveOnce Again (2018) 720p - WEB-DL - AVC - DD5.1 - Esubs-TT ExclusiveOnce Again (2018) 720p - WEB-DL - AVC - DD5.1 - Esubs-TT ExclusiveOnce Again (2018) 720p - WEB-DL - AVC - DD5.1 - Esubs-TT Exclusive

SINGLE DIRECT FAST LINKS

http://www.heroupload.us/498426ce8ecc63b9/Once.Again.2018.720p.WEB-DL.AVC.DD5.1.Esubs-TT.mp4
http://www.heroupload.us/6918cf1136dd6adb/Once.Again.2018.720p.WEB-DL.AVC.DD5.1.Esubs-TT.srt



http://filefloater.com/Uyh/Once.Again.2018.720p.WEB-DL.AVC.DD5.1.Esubs-TT.mp4
http://filefloater.com/Uyi/Once.Again.2018.720p.WEB-DL.AVC.DD5.1.Esubs-TT.srt


Buy Premium From My Links & Support Me

Теги: Once

Dear visitor, you are browsing our website as Guest.
We strongly recommend you to register and login to view hidden contents.

Comments:

Add Comments