Set as default Homepage|Bookmark
 
 
» » A Aa (2018) Hindi - 720p - WEB-HD - AVC - AAC-Aditya
Advertise

A Aa (2018) Hindi - 720p - WEB-HD - AVC - AAC-Aditya

Author: wroser on 26-08-2018, 15:08
A Aa (2018) Hindi - 720p - WEB-HD - AVC - AAC-Aditya




Format                      : MPEG-4
Format profile              : Base Media / Version 2
Codec ID                    : mp42 (isom/mp42)
File size                   : 1.14 GiB
Duration                    : 2 h 32 min
Overall bit rate mode       : Variable
Overall bit rate            : 1 071 kb/s
Encoded date                : UTC 2018-08-26 01:09:51
Tagged date                 : UTC 2018-08-26 01:09:51
gsst                        : 0
gstd                        : 9159436

Video
ID                          : 1
Format                      : AVC
Format/Info                 : Advanced Video Codec
Format profile              : Main@L3.1
Format settings, CABAC      : Yes
Format settings, RefFrames  : 3 frames
Codec ID                    : avc1
Codec ID/Info               : Advanced Video Coding
Duration                    : 2 h 32 min
Bit rate                    : 941 kb/s
Width                       : 1 280 pixels
Height                      : 720 pixels
Display aspect ratio        : 16:9
Frame rate mode             : Constant
Frame rate                  : 24.000 FPS
Color space                 : YUV
Chroma subsampling          : 4:2:0
Bit depth                   : 8 bits
Scan type                   : Progressive
Bits/(Pixel*Frame)          : 0.043
Stream size                 : 1.00 GiB (88%)
Title                       : ISO Media file produced by Google Inc. Created on: 08/25/2018.
Encoded date                : UTC 2018-08-26 01:09:51
Tagged date                 : UTC 2018-08-26 01:09:51
Color range                 : Limited
Color primaries             : BT.709
Transfer characteristics    : BT.709
Matrix coefficients         : BT.709

Audio
ID                          : 2
Format                      : AAC
Format/Info                 : Advanced Audio Codec
Format profile              : LC
Codec ID                    : 40
Duration                    : 2 h 32 min
Bit rate mode               : Variable
Bit rate                    : 126 kb/s
Channel(s)                  : 2 channels
Channel positions           : Front: L R
Sampling rate               : 44.1 kHz
Frame rate                  : 43.066 FPS (1024 SPF)
Compression mode            : Lossy
Stream size                 : 137 MiB (12%)
Title                       : ISO Media file produced by Google Inc. Created on: 08/25/2018.
Language                    : English
Encoded date                : UTC 2018-08-26 01:09:51
Tagged date                 : UTC 2018-08-26 01:09:51

A Aa (2018) Hindi - 720p - WEB-HD - AVC - AAC-Aditya
A Aa (2018) Hindi - 720p - WEB-HD - AVC - AAC-AdityaA Aa (2018) Hindi - 720p - WEB-HD - AVC - AAC-AdityaA Aa (2018) Hindi - 720p - WEB-HD - AVC - AAC-AdityaA Aa (2018) Hindi - 720p - WEB-HD - AVC - AAC-AdityaA Aa (2018) Hindi - 720p - WEB-HD - AVC - AAC-AdityaA Aa (2018) Hindi - 720p - WEB-HD - AVC - AAC-Aditya

SINGLE DIRECT FAST LINKS
http://www.heroupload.us/1c85cd7c40a1ebc1/A.Aa.2018.720p.WEB-HD.AVC.AAC-Aditya.mp4


http://filefloater.com/Urv/A.Aa.2018.720p.WEB-HD.AVC.AAC-Aditya.mp4



Buy Premium From My Links & Support Me

Теги: A

Dear visitor, you are browsing our website as Guest.
We strongly recommend you to register and login to view hidden contents.

Comments:

Add Comments