Set as default Homepage|Bookmark
 
 
» » Jurassic World Fallen Kingdom (2018) 720p HDTS XviD VAiN
Advertise

Jurassic World Fallen Kingdom (2018) 720p HDTS XviD VAiN

Author: wroser on 28-06-2018, 08:16
Jurassic World Fallen Kingdom (2018) 720p HDTS XviD VAiN









iMDB........: https://www.imdb.com/title/tt4881806/
T E C H N i C A L . i N F O . . .
Format                      : AVI
Format/Info                 : Audio Video Interleave
File size                   : 1.75 GiB
Duration                    : 1 h 59 min
Overall bit rate            : 2 101 kb/s

Video
ID                          : 0
Format                      : MPEG-4 Visual
Format profile              : Advanced Simple@L5
Format settings, BVOP       : 2
Format settings, QPel       : No
Format settings, GMC        : No warppoints
Format settings, Matrix     : Default (H.263)
Muxing mode                 : Packed bitstream
Codec ID                    : XVID
Codec ID/Hint               : XviD
Duration                    : 1 h 59 min
Bit rate                    : 1 894 kb/s
Width                       : 1 280 pixels
Height                      : 512 pixels
Display aspect ratio        : 2.500
Frame rate                  : 30.000 FPS
Color space                 : YUV
Chroma subsampling          : 4:2:0
Bit depth                   : 8 bits
Scan type                   : Progressive
Compression mode            : Lossy
Bits/(Pixel*Frame)          : 0.096
Stream size                 : 1.57 GiB (90%)
Writing library             : XviD 64

Audio
ID                          : 1
Format                      : AAC
Format/Info                 : Advanced Audio Codec
Format profile              : LC
Codec ID                    : FF
Duration                    : 1 h 59 min
Bit rate                    : 192 kb/s
Channel(s)                  : 6 channels
Channel positions           : Front: L C R, Side: L R, LFE
Sampling rate               : 48.0 kHz
Frame rate                  : 46.875 FPS (1024 SPF)
Compression mode            : Lossy
Stream size                 : 163 MiB (9%)
Alignment                   : Split accross interleaves
Interleave, duration        : 21  ms (0.64 video frame)
Interleave, preload duratio : 217  ms
Title                       : Jurassic World Fallen 




Jurassic World Fallen Kingdom (2018) 720p HDTS XviD VAiN


Jurassic World Fallen Kingdom (2018) 720p HDTS XviD VAiN


Jurassic World Fallen Kingdom (2018) 720p HDTS XviD VAiN


Jurassic World Fallen Kingdom (2018) 720p HDTS XviD VAiN


Jurassic World Fallen Kingdom (2018) 720p HDTS XviD VAiN


Jurassic World Fallen Kingdom (2018) 720p HDTS XviD VAiN


Jurassic World Fallen Kingdom (2018) 720p HDTS XviD VAiN


Jurassic World Fallen Kingdom (2018) 720p HDTS XviD VAiN

SINGLE DIRECT FAST LINKS

http://www.heroupload.us/b3afe1c7ca7c9f7b/Jurassic_World_Fallen_Kingdom.2018.HDTS.720p.XviD.VAiN.avi



http://filefloater.com/1jwI/Jurassic_World_Fallen_Kingdom.2018.HDTS.720p.XviD.VAiN.avi




Теги: Jurassic

Dear visitor, you are browsing our website as Guest.
We strongly recommend you to register and login to view hidden contents.

Comments:

Add Comments
Reply
  • Group: Guests
  • ICQ:
  • Registration: --
  • Status:
  • 0 Comment
  • 0 Article
^
I was looking for the original verson of jurassic world on all the sites recommended by careerperfect reviews and finally i found it on your site. Thank you soo much for sharing.