Set as default Homepage|Bookmark
 
 
» » The Predator (2018) 720p - TCRip - x264 - AC3-1XBET
Advertise

The Predator (2018) 720p - TCRip - x264 - AC3-1XBET

Author: wroser on 14-09-2018, 06:42
The Predator (2018) 720p - TCRip - x264 - AC3-1XBET





Format                      : MPEG-4
Format profile              : Base Media / Version 2
Codec ID                    : mp42 (mp42/isom/avc1)
File size                   : 2.46 GiB
Duration                    : 1 h 40 min
Overall bit rate mode       : Variable
Overall bit rate            : 3 501 kb/s
Encoded date                : UTC 2018-09-13 20:08:44
Tagged date                 : UTC 2018-09-13 20:08:44
Writing application         : TMPGEnc Video Mastering Works 6 Version. 6.2.2.29

Video
ID                          : 2
Format                      : AVC
Format/Info                 : Advanced Video Codec
Format profile              : High@L3.1
Format settings, CABAC      : Yes
Format settings, RefFrames  : 6 frames
Codec ID                    : avc1
Codec ID/Info               : Advanced Video Coding
Duration                    : 1 h 40 min
Bit rate mode               : Variable
Bit rate                    : 3 248 kb/s
Maximum bit rate            : 18.0 Mb/s
Width                       : 1 280 pixels
Height                      : 536 pixels
Display aspect ratio        : 2.40:1
Frame rate mode             : Constant
Frame rate                  : 29.970 (30000/1001) FPS
Standard                    : Component
Color space                 : YUV
Chroma subsampling          : 4:2:0
Bit depth                   : 8 bits
Scan type                   : Progressive
Bits/(Pixel*Frame)          : 0.158
Stream size                 : 2.30 GiB (94%)
Writing library             : x264 core 148
Encoding settings           : cabac=1 / ref=6 / deblock=1:0:0 / analyse=0x3:0x113 / me=hex / subme=7 / psy=1 / psy_rd=1.00:0.00 / mixed_ref=1 / me_range=16 / chroma_me=1 / trellis=1 / 8x8dct=1 / cqm=1 / deadzone=21,11 / fast_pskip=1 / chroma_qp_offset=-2 / threads=12 / lookahead_threads=2 / sliced_threads=0 / slices=1 / nr=0 / decimate=1 / interlaced=0 / minigop=0 / stitchable=1 / constrained_intra=0 / bframes=3 / b_pyramid=0 / b_adapt=1 / b_bias=0 / direct=1 / weightb=1 / open_gop=0 / weightp=2 / keyint=250 / keyint_min=25 / scenecut=40 / intra_refresh=0 / rc_lookahead=40 / rc=abr / mbtree=1 / bitrate=3248 / ratetol=1.0 / qcomp=0.60 / qpmin=3 / qpmax=69 / qpstep=4 / vbv_maxrate=18000 / vbv_bufsize=18000 / nal_hrd=vbr / filler=0 / ip_ratio=1.40 / aq=1:1.00
Encoded date                : UTC 2018-09-13 20:08:44
Tagged date                 : UTC 2018-09-13 20:08:44
Color range                 : Limited
Color primaries             : BT.709
Transfer characteristics    : BT.709
Matrix coefficients         : BT.709

Audio
ID                          : 1
Format                      : AC-3
Format/Info                 : Audio Coding 3
Format settings, Endianness : Big
Codec ID                    : ac-3
Duration                    : 1 h 40 min
Bit rate mode               : Constant
Bit rate                    : 224 kb/s
Channel(s)                  : 2 channels
Channel positions           : Front: L R
Sampling rate               : 48.0 kHz
Frame rate                  : 31.250 FPS (1536 SPF)
Bit depth                   : 16 bits
Compression mode            : Lossy
Stream size                 : 161 MiB (6%)
Service kind                : Complete Main
Default                     : Yes
Alternate group             : 1
Encoded date                : UTC 2018-09-13 20:08:44
Tagged date                 : UTC 2018-09-13 20:08:44




The Predator (2018) 720p - TCRip - x264 - AC3-1XBETThe Predator (2018) 720p - TCRip - x264 - AC3-1XBETThe Predator (2018) 720p - TCRip - x264 - AC3-1XBETThe Predator (2018) 720p - TCRip - x264 - AC3-1XBETThe Predator (2018) 720p - TCRip - x264 - AC3-1XBET

SINGLE DIRECT FAST LINKS
http://www.heroupload.us/9f1b2690c9672aac/The.Predator.2018.TS-1XBET.mp4


http://filefloater.com/2AP6/The.Predator.2018.TS-1XBET.mp4

1GB LINKS

http://www.heroupload.us/a51221e26bb19ed4/The.Predator.2018.TS-1XBET.part1.rar
http://www.heroupload.us/6eea6ac8daac8491/The.Predator.2018.TS-1XBET.part2.rar
http://www.heroupload.us/0f8680e8b0bb69a4/The.Predator.2018.TS-1XBET.part3.rar



http://filefloater.com/2AP7/The.Predator.2018.TS-1XBET.part1.rar
http://filefloater.com/2AP8/The.Predator.2018.TS-1XBET.part2.rar
http://filefloater.com/2AP9/The.Predator.2018.TS-1XBET.part3.rar


Buy Premium From My Links & Support Me

Теги: The

Dear visitor, you are browsing our website as Guest.
We strongly recommend you to register and login to view hidden contents.

Comments:

Add Comments