Set as default Homepage|Bookmark
 
 
» » 13 Going On 30 (2004) 720p BluRay x264 Esubs [Dual Audio][Hindi+Eng] Maher
Advertise

13 Going On 30 (2004) 720p BluRay x264 Esubs [Dual Audio][Hindi+Eng] Maher

Author: wroser on 11-07-2018, 15:06
13 Going On 30 (2004) 720p BluRay x264 Esubs [Dual Audio][Hindi+Eng] Maher





Format                                   : Matroska
Format version                           : Version 4 / Version 2
File size                                : 837 MiB
Duration                                 : 1 h 37 min
Overall bit rate                         : 1 197 kb/s
Encoded date                             : UTC 2018-07-09 12:03:06
Writing application                      : mkvmerge v9.7.1 ('Pandemonium') 64bit
Writing library                          : libebml v1.3.4 + libmatroska v1.4.5

Video
ID                                       : 1
Format                                   : AVC
Format/Info                              : Advanced Video Codec
Format profile                           : High@L4.1
Format settings                          : CABAC / 4 Ref Frames
Format settings, CABAC                   : Yes
Format settings, RefFrames               : 4 frames
Codec ID                                 : V_MPEG4/ISO/AVC
Duration                                 : 1 h 37 min
Bit rate                                 : 900 kb/s
Width                                    : 1 280 pixels
Height                                   : 694 pixels
Display aspect ratio                     : 1.85:1
Frame rate mode                          : Constant
Frame rate                               : 23.976 FPS
Color space                              : YUV
Chroma subsampling                       : 4:2:0
Bit depth                                : 8 bits
Scan type                                : Progressive
Bits/(Pixel*Frame)                       : 0.042
Stream size                              : 629 MiB (75%)
Writing library                          : x264 core 148
Encoding settings                        : cabac=1 / ref=4 / deblock=1:-1:-1 / analyse=0x3:0x133 / me=umh / subme=9 / psy=1 / psy_rd=1.00:0.15 / mixed_ref=1 / me_range=24 / chroma_me=1 / trellis=2 / 8x8dct=1 / cqm=0 / deadzone=21,11 / fast_pskip=0 / chroma_qp_offset=-3 / threads=12 / lookahead_threads=1 / sliced_threads=0 / nr=0 / decimate=1 / interlaced=0 / bluray_compat=0 / constrained_intra=0 / bframes=3 / b_pyramid=2 / b_adapt=2 / b_bias=0 / direct=3 / weightb=1 / open_gop=0 / weightp=2 / keyint=250 / keyint_min=23 / scenecut=40 / intra_refresh=0 / rc_lookahead=60 / rc=2pass / mbtree=1 / bitrate=900 / ratetol=1.0 / qcomp=0.60 / qpmin=0 / qpmax=69 / qpstep=4 / cplxblur=20.0 / qblur=0.5 / vbv_maxrate=31250 / vbv_bufsize=31250 / nal_hrd=none / filler=0 / ip_ratio=1.40 / aq=1:1.00
Default                                  : Yes
Forced                                   : No

Audio #1
ID                                       : 2
Format                                   : AAC
Format/Info                              : Advanced Audio Codec
Format profile                           : LC
Codec ID                                 : A_AAC-2
Duration                                 : 1 h 37 min
Bit rate                                 : 105 kb/s
Channel(s)                               : 2 channels
Channel positions                        : Front: L R
Sampling rate                            : 48.0 kHz
Frame rate                               : 46.875 FPS (1024 SPF)
Compression mode                         : Lossy
Delay relative to video                  : -43 ms
Stream size                              : 73.4 MiB (9%)
Default                                  : No
Forced                                   : No

Audio #2
ID                                       : 3
Format                                   : AAC
Format/Info                              : Advanced Audio Codec
Format profile                           : LC
Codec ID                                 : A_AAC-2
Duration                                 : 1 h 37 min
Bit rate                                 : 192 kb/s
Channel(s)                               : 2 channels
Channel positions                        : Front: L R
Sampling rate                            : 48.0 kHz
Frame rate                               : 46.875 FPS (1024 SPF)
Compression mode                         : Lossy
Delay relative to video                  : -43 ms
Stream size                              : 132 MiB (16%)
Title                                    : BY-MAHER
Language                                 : Hindi
Default                                  : Yes
Forced                                   : Yes

Text
ID                                       : 4
Format                                   : UTF-8
Codec ID                                 : S_TEXT/UTF8
Codec ID/Info                            : UTF-8 Plain Text
Duration                                 : 1 h 32 min
Bit rate                                 : 55 b/s
Count of elements                        : 1001
Stream size                              : 37.3 KiB (0%)
Default                                  : Yes
Forced                                   : No




13 Going On 30 (2004) 720p BluRay x264 Esubs [Dual Audio][Hindi+Eng] Maher13 Going On 30 (2004) 720p BluRay x264 Esubs [Dual Audio][Hindi+Eng] Maher13 Going On 30 (2004) 720p BluRay x264 Esubs [Dual Audio][Hindi+Eng] Maher13 Going On 30 (2004) 720p BluRay x264 Esubs [Dual Audio][Hindi+Eng] Maher


SINGLE DIRECT FAST LINKS
http://www.heroupload.us/67219503bdcebc46/13.Going.On.30.2004.x264.720p.Dual.Audio.Hindi+Eng.BluRay.Esubs.Exclusive-Maher.mkv


http://filefloater.com/29Ge/13.Going.On.30.2004.x264.720p.Dual.Audio.Hindi+Eng.BluRay.Esubs.Exclusive-Maher.mkv




Buy Premium From My Links & Support Me

Теги: 13

Dear visitor, you are browsing our website as Guest.
We strongly recommend you to register and login to view hidden contents.

Comments:

Add Comments