Set as default Homepage|Bookmark
 
 
» » Ant-Man and the Wasp (2018) 720p HDCAM x264 [Dual Audio][Hindi+English] - MCR
Advertise

Ant-Man and the Wasp (2018) 720p HDCAM x264 [Dual Audio][Hindi+English] - MCR

Author: wroser on 8-07-2018, 19:16
Ant-Man and the Wasp (2018) 720p HDCAM x264 [Dual Audio][Hindi+English] - MCR





Format                      : Matroska
Format version              : Version 4 / Version 2
File size                   : 1.08 GiB
Duration                    : 1 h 47 min
Overall bit rate            : 1 445 kb/s
Movie name                  : www.MovCr.com
Encoded date                : UTC 2018-07-07 16:01:07
Writing application         : mkvmerge v23.0.0 ('The Bride Said No') 64-bit
Writing library             : libebml v1.3.6 + libmatroska v1.4.9

Video
ID                          : 1
Format                      : AVC
Format/Info                 : Advanced Video Codec
Format profile              : Main@L3.1
Format settings, CABAC      : Yes
Format settings, ReFrames   : 4 frames
Codec ID                    : V_MPEG4/ISO/AVC
Duration                    : 1 h 47 min
Bit rate                    : 1 122 kb/s
Width                       : 1 280 pixels
Height                      : 544 pixels
Display aspect ratio        : 2.40:1
Frame rate mode             : Variable
Frame rate                  : 24.061 FPS
Color space                 : YUV
Chroma subsampling          : 4:2:0
Bit depth                   : 8 bits
Scan type                   : Progressive
Bits/(Pixel*Frame)          : 0.067
Stream size                 : 860 MiB (78%)
Title                       : www.MovCr.com
Writing library             : x264 core 155 r2893 b00bcaf
Encoding settings           : cabac=1 / ref=1 / deblock=1:0:0 / analyse=0x1:0x111 / me=hex / subme=2 / psy=1 / psy_rd=1.00:0.00 / mixed_ref=0 / me_range=16 / chroma_me=1 / trellis=0 / 8x8dct=0 / cqm=0 / deadzone=21,11 / fast_pskip=1 / chroma_qp_offset=0 / threads=12 / lookahead_threads=4 / sliced_threads=0 / nr=0 / decimate=1 / interlaced=0 / bluray_compat=0 / constrained_intra=0 / bframes=3 / b_pyramid=2 / b_adapt=1 / b_bias=0 / direct=1 / weightb=1 / open_gop=0 / weightp=1 / keyint=240 / keyint_min=24 / scenecut=40 / intra_refresh=0 / rc_lookahead=10 / rc=crf / mbtree=1 / crf=23.0 / qcomp=0.60 / qpmin=0 / qpmax=69 / qpstep=4 / vbv_maxrate=14000 / vbv_bufsize=14000 / crf_max=0.0 / nal_hrd=none / filler=0 / ip_ratio=1.40 / aq=1:1.00
Default                     : Yes
Forced                      : No
Color range                 : Limited
Color primaries             : BT.601 NTSC
Transfer characteristics    : BT.709
Matrix coefficients         : BT.601

Audio #1
ID                          : 2
Format                      : AAC
Format/Info                 : Advanced Audio Codec
Format profile              : LC
Codec ID                    : A_AAC
Duration                    : 1 h 47 min
Bit rate                    : 160 kb/s
Channel(s)                  : 2 channels
Channel positions           : Front: L R
Sampling rate               : 48.0 kHz
Frame rate                  : 46.875 FPS (1024 spf)
Compression mode            : Lossy
Delay relative to video     : -21 ms
Stream size                 : 123 MiB (11%)
Title                       : www.MovCr.com
Language                    : English
Default                     : No
Forced                      : No

Audio #2
ID                          : 3
Format                      : MPEG Audio
Format version              : Version 1
Format profile              : Layer 3
Mode                        : Joint stereo
Codec ID                    : A_MPEG/L3
Codec ID/Hint               : MP3
Duration                    : 1 h 47 min
Bit rate mode               : Constant
Bit rate                    : 160 kb/s
Channel(s)                  : 2 channels
Sampling rate               : 44.1 kHz
Frame rate                  : 38.281 FPS (1152 spf)
Compression mode            : Lossy
Delay relative to video     : -21 ms
Stream size                 : 123 MiB (11%)
Title                       : www.MovCr.com
Writing library             : LAME3.98.2
Language                    : Hindi
Default                     : Yes
Forced                      : Yes 


Ant-Man and the Wasp (2018) 720p HDCAM x264 [Dual Audio][Hindi+English] - MCRAnt-Man and the Wasp (2018) 720p HDCAM x264 [Dual Audio][Hindi+English] - MCRAnt-Man and the Wasp (2018) 720p HDCAM x264 [Dual Audio][Hindi+English] - MCRAnt-Man and the Wasp (2018) 720p HDCAM x264 [Dual Audio][Hindi+English] - MCRAnt-Man and the Wasp (2018) 720p HDCAM x264 [Dual Audio][Hindi+English] - MCRAnt-Man and the Wasp (2018) 720p HDCAM x264 [Dual Audio][Hindi+English] - MCRAnt-Man and the Wasp (2018) 720p HDCAM x264 [Dual Audio][Hindi+English] - MCRAnt-Man and the Wasp (2018) 720p HDCAM x264 [Dual Audio][Hindi+English] - MCRAnt-Man and the Wasp (2018) 720p HDCAM x264 [Dual Audio][Hindi+English] - MCRAnt-Man and the Wasp (2018) 720p HDCAM x264 [Dual Audio][Hindi+English] - MCRAnt-Man and the Wasp (2018) 720p HDCAM x264 [Dual Audio][Hindi+English] - MCR

SINGLE DIRECT FAST LINKS
http://www.heroupload.us/65130e890a7929c8/Ant-Man.and.the.Wasp.2018.720p.HDCAM.x264.Dual.Audio.Clean.Audios.Hindi+English-MovCr.mkv


http://filefloater.com/29Ew/Ant-Man.and.the.Wasp.2018.720p.HDCAM.x264.Dual.Audio.Clean.Audios.Hindi+English-MovCr.mkv



Buy Premium From My Links & Support Me

Теги: Ant

Dear visitor, you are browsing our website as Guest.
We strongly recommend you to register and login to view hidden contents.

Comments:

Add Comments