Set as default Homepage|Bookmark
 
 
» » Pacific Rim Uprising (2018) 1080p BluRay x264 DD5.1 Msubs [Dual Audio][Hindi+English]
Advertise

Pacific Rim Uprising (2018) 1080p BluRay x264 DD5.1 Msubs [Dual Audio][Hindi+English]

Author: wroser on 30-06-2018, 05:32
Pacific Rim Uprising (2018) 1080p BluRay x264 DD5.1 Msubs [Dual Audio][Hindi+English]




Format                                   : Matroska
Format version                           : Version 4 / Version 2
File size                                : 4.78 GiB
Duration                                 : 1 h 50 min
Overall bit rate mode                    : Variable
Overall bit rate                         : 6 186 kb/s
Movie name                               : Pacific Rim Uprising (2018) 1080p BluRay x264 Dual Audio [Hindi DD5.1 - English DD5.1] - Msubs ~ Ranvijay

Video
ID                                       : 1
Format                                   : AVC
Format/Info                              : Advanced Video Codec
Duration                                 : 1 h 50 min
Bit rate mode                            : Variable
Bit rate                                 : 4 960 kb/s
Maximum bit rate                         : 50.0 Mb/s
Width                                    : 1 920 pixels
Height                                   : 800 pixels
Display aspect ratio                     : 2.40:1
Frame rate mode                          : Constant
Frame rate                               : 23.976 (24000/1001) FPS
Color space                              : YUV
Chroma subsampling                       : 4:2:0
Bit depth                                : 8 bits
Scan type                                : Progressive
Bits/(Pixel*Frame)                       : 0.135
Stream size                              : 3.83 GiB (80%)
Title                                    : ~Ranvijay~
Default                                  : Yes
Forced                                   : No

Audio #1
ID                                       : 2
Format                                   : E-AC-3
Format/Info                              : Enhanced Audio Coding 3
Codec ID                                 : A_EAC3
Duration                                 : 1 h 50 min
Bit rate mode                            : Constant
Bit rate                                 : 500 b/s
Channel(s)                               : 6 channels
Channel positions                        : Front: L C R, Side: L R, LFE
Sampling rate                            : 48.0 kHz
Frame rate                               : 187.500 FPS (256 SPF)
Compression mode                         : Lossy
Stream size                              : 608 MiB (12%)
Title                                    : ~Ranvijay~
Language                                 : Hindi
Service kind                             : Complete Main
Default                                  : Yes
Forced                                   : No

Audio #2
ID                                       : 3
Format                                   : AC-3
Format/Info                              : Audio Coding 3
Codec ID                                 : A_AC3
Duration                                 : 1 h 50 min
Bit rate mode                            : Constant
Bit rate                                 : 448 kb/s
Channel(s)                               : 6 channels
Channel positions                        : Front: L C R, Side: L R, LFE
Sampling rate                            : 48.0 kHz
Frame rate                               : 31.250 FPS (1536 SPF)
Bit depth                                : 16 bits
Compression mode                         : Lossy
Stream size                              : 355 MiB (7%)
Title                                    : ~Ranvijay~
Language                                 : English
Service kind                             : Complete Main
Default                                  : No
Forced                                   : No





Pacific Rim Uprising (2018) 1080p BluRay x264 DD5.1 Msubs [Dual Audio][Hindi+English]
Pacific Rim Uprising (2018) 1080p BluRay x264 DD5.1 Msubs [Dual Audio][Hindi+English]
Pacific Rim Uprising (2018) 1080p BluRay x264 DD5.1 Msubs [Dual Audio][Hindi+English]
Pacific Rim Uprising (2018) 1080p BluRay x264 DD5.1 Msubs [Dual Audio][Hindi+English]
Pacific Rim Uprising (2018) 1080p BluRay x264 DD5.1 Msubs [Dual Audio][Hindi+English]
Pacific Rim Uprising (2018) 1080p BluRay x264 DD5.1 Msubs [Dual Audio][Hindi+English]
Pacific Rim Uprising (2018) 1080p BluRay x264 DD5.1 Msubs [Dual Audio][Hindi+English]
Pacific Rim Uprising (2018) 1080p BluRay x264 DD5.1 Msubs [Dual Audio][Hindi+English]
Pacific Rim Uprising (2018) 1080p BluRay x264 DD5.1 Msubs [Dual Audio][Hindi+English]
SINGLE DIRECT FAST LINKS

http://www.heroupload.us/394ce2add4cfd97d/Pacific.Rim.Uprising.2018.1080p.BluRay.x264.Dual.Audio.Hindi.DD5.1.English.DD5.1.Msubs-Ranvijay.mkv


http://filefloater.com/Tx3/Pacific.Rim.Uprising.2018.1080p.BluRay.x264.Dual.Audio.Hindi.DD5.1.English.DD5.1.Msubs-Ranvijay.mkv

1GB LINKS


http://www.heroupload.us/a82977e6a313fc24/Pacific.Rim.Uprising.2018.1080p.BluRay.x264.Dual.Audio.Hindi.DD5.1.English.DD5.1.Msubs-Ranvijay.part1.rar
http://www.heroupload.us/5f7397c50e51af55/Pacific.Rim.Uprising.2018.1080p.BluRay.x264.Dual.Audio.Hindi.DD5.1.English.DD5.1.Msubs-Ranvijay.part2.rar
http://www.heroupload.us/4cba926ab794068a/Pacific.Rim.Uprising.2018.1080p.BluRay.x264.Dual.Audio.Hindi.DD5.1.English.DD5.1.Msubs-Ranvijay.part3.rar
http://www.heroupload.us/16229c693d376cf1/Pacific.Rim.Uprising.2018.1080p.BluRay.x264.Dual.Audio.Hindi.DD5.1.English.DD5.1.Msubs-Ranvijay.part4.rar
http://www.heroupload.us/60625704a38ad868/Pacific.Rim.Uprising.2018.1080p.BluRay.x264.Dual.Audio.Hindi.DD5.1.English.DD5.1.Msubs-Ranvijay.part5.rar



http://filefloater.com/Tx2/Pacific.Rim.Uprising.2018.1080p.BluRay.x264.Dual.Audio.Hindi.DD5.1.English.DD5.1.Msubs-Ranvijay.part1.rar
http://filefloater.com/Tx1/Pacific.Rim.Uprising.2018.1080p.BluRay.x264.Dual.Audio.Hindi.DD5.1.English.DD5.1.Msubs-Ranvijay.part2.rar
http://filefloater.com/Tx0/Pacific.Rim.Uprising.2018.1080p.BluRay.x264.Dual.Audio.Hindi.DD5.1.English.DD5.1.Msubs-Ranvijay.part3.rar
http://filefloater.com/1jxT/Pacific.Rim.Uprising.2018.1080p.BluRay.x264.Dual.Audio.Hindi.DD5.1.English.DD5.1.Msubs-Ranvijay.part4.rar
http://filefloater.com/1jxS/Pacific.Rim.Uprising.2018.1080p.BluRay.x264.Dual.Audio.Hindi.DD5.1.English.DD5.1.Msubs-Ranvijay.part5.rar




Теги: Pacific

Dear visitor, you are browsing our website as Guest.
We strongly recommend you to register and login to view hidden contents.

Comments:

Add Comments