Set as default Homepage|Bookmark
 
 
» » The 40 Year Old Virgin (2005) 1080p BluRay x265 DD5.1 [Dual Audio][Hindi+English]
Advertise

The 40 Year Old Virgin (2005) 1080p BluRay x265 DD5.1 [Dual Audio][Hindi+English]

Author: wroser on 12-06-2018, 12:54
The 40 Year Old Virgin (2005) 1080p BluRay x265 DD5.1 [Dual Audio][Hindi+English]






Format                                   : Matroska
Format version                           : Version 4 / Version 2
File size                                : 2.49 GiB
Duration                                 : 2 h 12 min
Overall bit rate                         : 2 693 kb/s
Movie name                               : The 40 Year Old Virgin (2005) Unrated BluRay 1080p 10bit x265 HEVC Dual Audio [Hindi - English] DD5.1 - Esub ~ Ranvijay

Video
ID                                       : 1
Format                                   : HEVC
Format/Info                              : High Efficiency Video Coding
Format profile                           : Main 10@L4@Main
Codec ID                                 : V_MPEGH/ISO/HEVC
Duration                                 : 2 h 12 min
Bit rate                                 : 2 097 kb/s
Width                                    : 1 920 pixels
Height                                   : 1 040 pixels
Display aspect ratio                     : 1.85:1
Frame rate mode                          : Constant
Frame rate                               : 23.976 (24000/1001) FPS
Color space                              : YUV
Chroma subsampling                       : 4:2:0
Bit depth                                : 10 bits
Bits/(Pixel*Frame)                       : 0.044
Stream size                              : 1.94 GiB (78%)
Title                                    : ~Ranvijay~
Language                                 : English
Default                                  : Yes
Forced                                   : No

Audio #1
ID                                       : 2
Format                                   : AC-3
Format/Info                              : Audio Coding 3
Codec ID                                 : A_AC3
Duration                                 : 2 h 12 min
Bit rate mode                            : Constant
Bit rate                                 : 384 kb/s
Channel(s)                               : 6 channels
Channel positions                        : Front: L C R, Side: L R, LFE
Sampling rate                            : 48.0 kHz
Frame rate                               : 31.250 FPS (1536 SPF)
Bit depth                                : 16 bits
Compression mode                         : Lossy
Delay relative to video                  : 1 s 0 ms
Stream size                              : 364 MiB (14%)
Title                                    : ~Ranvijay~
Language                                 : Hindi
Service kind                             : Complete Main
Default                                  : Yes
Forced                                   : No

Audio #2
ID                                       : 3
Format                                   : AAC
Format/Info                              : Advanced Audio Codec
Format profile                           : HE-AAC / LC
Format settings                          : Explicit
Codec ID                                 : A_AAC-2
Duration                                 : 2 h 12 min
Bit rate                                 : 192 kb/s
Channel(s)                               : 6 channels
Channel positions                        : Front: L C R, Side: L R, LFE
Sampling rate                            : 48.0 kHz / 24.0 kHz
Frame rate                               : 23.438 FPS (1024 SPF)
Compression mode                         : Lossy
Delay relative to video                  : 34 ms
Stream size                              : 182 MiB (7%)
Title                                    : ~Ranvijay~
Language                                 : English
Default                                  : No
Forced                                   : No

Text
ID                                       : 4
Format                                   : PGS
Muxing mode                              : zlib
Codec ID                                 : S_HDMV/PGS
Codec ID/Info                            : Picture based subtitle format used on BDs/HD-DVDs
Duration                                 : 2 h 10 min
Bit rate                                 : 62.5 kb/s
Count of elements                        : 5451
Stream size                              : 58.1 MiB (2%)
Title                                    : ~Ranvijay~
Language                                 : English
Default                                  : Yes
Forced                                   : No




The 40 Year Old Virgin (2005) 1080p BluRay x265 DD5.1 [Dual Audio][Hindi+English]
The 40 Year Old Virgin (2005) 1080p BluRay x265 DD5.1 [Dual Audio][Hindi+English]
The 40 Year Old Virgin (2005) 1080p BluRay x265 DD5.1 [Dual Audio][Hindi+English]
The 40 Year Old Virgin (2005) 1080p BluRay x265 DD5.1 [Dual Audio][Hindi+English]
The 40 Year Old Virgin (2005) 1080p BluRay x265 DD5.1 [Dual Audio][Hindi+English]
The 40 Year Old Virgin (2005) 1080p BluRay x265 DD5.1 [Dual Audio][Hindi+English]
The 40 Year Old Virgin (2005) 1080p BluRay x265 DD5.1 [Dual Audio][Hindi+English]

SINGLE DIRECT FAST LINKS
http://www.heroupload.us/e3c862d35d32d06a/The.40.Year.Old.Virgin.2005.Unrated.BluRay.1080p.10bit.x265.HEVC.Hindi-English-Ranvijay.mkv


http://filefloater.com/1joM/The.40.Year.Old.Virgin.2005.Unrated.BluRay.1080p.10bit.x265.HEVC.Hindi-English-Ranvijay.mkv

700MB LINKS

http://www.heroupload.us/774a9e32f3223c7d/The.40.Year.Old.Virgin.2005.Unrated.BluRay.1080p.10bit.x265.HEVC.Hindi-English-Ranvijay.part1.rar
http://www.heroupload.us/9f6242c4bc55f7fb/The.40.Year.Old.Virgin.2005.Unrated.BluRay.1080p.10bit.x265.HEVC.Hindi-English-Ranvijay.part2.rar
http://www.heroupload.us/327d8638cba75a7f/The.40.Year.Old.Virgin.2005.Unrated.BluRay.1080p.10bit.x265.HEVC.Hindi-English-Ranvijay.part3.rar
http://www.heroupload.us/51b54939cc7ac7b9/The.40.Year.Old.Virgin.2005.Unrated.BluRay.1080p.10bit.x265.HEVC.Hindi-English-Ranvijay.part4.rar



http://filefloater.com/1joN/The.40.Year.Old.Virgin.2005.Unrated.BluRay.1080p.10bit.x265.HEVC.Hindi-English-Ranvijay.part1.rar
http://filefloater.com/1joO/The.40.Year.Old.Virgin.2005.Unrated.BluRay.1080p.10bit.x265.HEVC.Hindi-English-Ranvijay.part2.rar
http://filefloater.com/1joP/The.40.Year.Old.Virgin.2005.Unrated.BluRay.1080p.10bit.x265.HEVC.Hindi-English-Ranvijay.part3.rar
http://filefloater.com/1joQ/The.40.Year.Old.Virgin.2005.Unrated.BluRay.1080p.10bit.x265.HEVC.Hindi-English-Ranvijay.part4.rar





Теги: The

Dear visitor, you are browsing our website as Guest.
We strongly recommend you to register and login to view hidden contents.

Comments:

Add Comments