Set as default Homepage|Bookmark
 
 
» » Biutiful (2010) 720p - BluRay - x264 - Esub [Dual Audio][Hindi+Spanish] - GOPISAH
Advertise

Biutiful (2010) 720p - BluRay - x264 - Esub [Dual Audio][Hindi+Spanish] - GOPISAH

Author: wroser on 12-06-2018, 12:40
Biutiful (2010) 720p - BluRay - x264 - Esub [Dual Audio][Hindi+Spanish] - GOPISAH





Format : Matroska
Format version : Version 4 / Version 2
File size : 820 MiB
Duration : 2 h 28 min
Overall bit rate : 774 kb/s
Movie name : Biutiful 2010 GOPISAHI

Video
Format : AVC
Codec ID : V_MPEG4/ISO/AVC
Duration : 2 h 28 min
Bit rate : 600 kb/s
Width : 1 280 pixels
Height : 696 pixels
Display aspect ratio : 1.85:1
Frame rate mode : Constant
Frame rate : 23.976 (24000/1001) FPS
Color space : YUV
Chroma subsampling : 4:2:0
Bit depth : 8 bits
Scan type : Progressive
Bits/(Pixel*Frame) : 0.028
Stream size : 635 MiB (77%)
Title : GOPISAHI
Writing library : x264 core 155 r2893 b00bcaf

Audio #1
Format : AAC
Duration : 2 h 28 min
Bit rate : 88.1 kb/s
Channel(s) : 6 channels
Channel positions : Front: L C R, Side: L R, LFE
Sampling rate : 44.1 kHz
Frame rate : 43.066 FPS (1024 SPF)
Compression mode : Lossy
Stream size : 93.4 MiB (11%)
Title : GOPISAHI
Language : Hindi

Audio #2
Format : AAC
Duration : 2 h 28 min
Bit rate : 83.5 kb/s
Channel(s) : 6 channels
Channel positions : Front: L C R, Side: L R, LFE
Sampling rate : 44.1 kHz
Frame rate : 43.066 FPS (1024 SPF)
Compression mode : Lossy
Stream size : 88.4 MiB (11%)
Title : GOPISAHI
Language : Spanish

Text
Language : English 



Biutiful (2010) 720p - BluRay - x264 - Esub [Dual Audio][Hindi+Spanish] - GOPISAH
Biutiful (2010) 720p - BluRay - x264 - Esub [Dual Audio][Hindi+Spanish] - GOPISAH
Biutiful (2010) 720p - BluRay - x264 - Esub [Dual Audio][Hindi+Spanish] - GOPISAH

SINGLE DIRECT FAST LINKS
http://www.heroupload.us/04c745bf09d6b95d/Biutiful.2010.x264.720p.Esub.Blu-Ray.Dual.Audio.Spanish+Hindi-GOPISAHI.mkv


http://filefloater.com/1joI/Biutiful.2010.x264.720p.Esub.Blu-Ray.Dual.Audio.Spanish+Hindi-GOPISAHI.mkv



Теги: Biutiful

Dear visitor, you are browsing our website as Guest.
We strongly recommend you to register and login to view hidden contents.

Comments:

Add Comments