Set as default Homepage|Bookmark
 
 
» » Love Simon (2018) 720p BluRay x264 Esub [Dual Audio][Hindi+English] Ranvijay
Advertise

Love Simon (2018) 720p BluRay x264 Esub [Dual Audio][Hindi+English] Ranvijay

Author: wroser on 6-06-2018, 12:31
Love Simon (2018) 720p BluRay x264 Esub [Dual Audio][Hindi+English] Ranvijay







Format                                   : Matroska
Format version                           : Version 4 / Version 2
File size                                : 1.32 GiB
Duration                                 : 1 h 49 min
Overall bit rate                         : 1 723 kb/s
Movie name                               : Love Simon (2018) 720p BluRay x264 Dual Audio [Hindi DD5.1 - English DD2.0] - Esub ~ Ranvijay

Video
ID                                       : 1
Format                                   : AVC
Format/Info                              : Advanced Video Codec
Format profile                           : High@L4.1
Format settings                          : CABAC / 9 Ref Frames
Format settings, CABAC                   : Yes
Format settings, RefFrames               : 9 frames
Codec ID                                 : V_MPEG4/ISO/AVC
Duration                                 : 1 h 49 min
Bit rate                                 : 1 173 kb/s
Width                                    : 1 280 pixels
Height                                   : 536 pixels
Display aspect ratio                     : 2.40:1
Frame rate mode                          : Constant
Frame rate                               : 23.976 (24000/1001) FPS
Color space                              : YUV
Chroma subsampling                       : 4:2:0
Bit depth                                : 8 bits
Scan type                                : Progressive
Bits/(Pixel*Frame)                       : 0.071
Stream size                              : 920 MiB (68%)
Title                                    : ~Ranvijay~
Default                                  : Yes
Forced                                   : No

Audio #1
ID                                       : 2
Format                                   : AC-3
Format/Info                              : Audio Coding 3
Codec ID                                 : A_AC3
Duration                                 : 1 h 49 min
Bit rate mode                            : Constant
Bit rate                                 : 448 kb/s
Channel(s)                               : 6 channels
Channel positions                        : Front: L C R, Side: L R, LFE
Sampling rate                            : 48.0 kHz
Frame rate                               : 31.250 FPS (1536 SPF)
Bit depth                                : 16 bits
Compression mode                         : Lossy
Stream size                              : 352 MiB (26%)
Title                                    : ~Ranvijay~
Language                                 : Hindi
Service kind                             : Complete Main
Default                                  : Yes
Forced                                   : No

Audio #2
ID                                       : 3
Format                                   : AAC
Format/Info                              : Advanced Audio Codec
Format profile                           : HE-AAC / LC
Format settings                          : Explicit
Codec ID                                 : A_AAC-2
Duration                                 : 1 h 49 min
Bit rate                                 : 100.0 kb/s
Channel(s)                               : 2 channels
Channel positions                        : Front: L R
Sampling rate                            : 48.0 kHz / 24.0 kHz
Frame rate                               : 23.438 FPS (1024 SPF)
Compression mode                         : Lossy
Delay relative to video                  : 31 ms
Stream size                              : 78.5 MiB (6%)
Title                                    : ~Ranvijay~
Language                                 : English
Default                                  : No
Forced                                   : No

Text
ID                                       : 4
Format                                   : UTF-8
Codec ID                                 : S_TEXT/UTF8
Codec ID/Info                            : UTF-8 Plain Text
Duration                                 : 1 h 44 min
Bit rate                                 : 79 b/s
Count of elements                        : 1986
Stream size                              : 61.2 KiB (0%)
Title                                    : ~Ranvijay~
Language                                 : English
Default                                  : Yes
Forced                                   : No 





Love Simon (2018) 720p BluRay x264 Esub [Dual Audio][Hindi+English] Ranvijay
Love Simon (2018) 720p BluRay x264 Esub [Dual Audio][Hindi+English] Ranvijay
Love Simon (2018) 720p BluRay x264 Esub [Dual Audio][Hindi+English] Ranvijay
Love Simon (2018) 720p BluRay x264 Esub [Dual Audio][Hindi+English] Ranvijay
Love Simon (2018) 720p BluRay x264 Esub [Dual Audio][Hindi+English] Ranvijay

SINGLE DIRECT FAST LINKS

http://www.heroupload.us/fdc72b3272b60346/Love.Simon.2018.720p.BluRay.x264.Dual.Audio.Hindi.DD5.1+English.DD2.0.Esub-Ranvijay.mkv



http://filefloater.com/Tkz/Love.Simon.2018.720p.BluRay.x264.Dual.Audio.Hindi.DD5.1+English.DD2.0.Esub-Ranvijay.mkv



Теги: Love

Dear visitor, you are browsing our website as Guest.
We strongly recommend you to register and login to view hidden contents.

Comments:

Add Comments