Set as default Homepage|Bookmark
 
 
» » Death Wish (2018) 720p - HDRip - x264 - ESub [Multi Line Audios][Hindi+Tamil+English]
Advertise

Death Wish (2018) 720p - HDRip - x264 - ESub [Multi Line Audios][Hindi+Tamil+English]

Author: wroser on 22-05-2018, 23:36
Death Wish (2018) 720p - HDRip - x264 - ESub [Multi Line Audios][Hindi+Tamil+English]





General
Format                      : Matroska
Format version              : Version 4 / Version 2
File size                   : 1 005 MiB
Duration                    : 1 h 46 min
Overall bit rate mode       : Variable
Overall bit rate            : 1 317 kb/s
Encoded date                : UTC 2018-05-22 06:36:32
Writing application         : mkvmerge v7.1.0 ('Good Love') 32bit built on Jul 27 2014 12:59:18
Writing library             : libebml v1.3.0 + libmatroska v1.4.1

Video
ID                          : 1
Format                      : AVC
Format/Info                 : Advanced Video Codec
Format profile              : High@L4.1
Format settings, CABAC      : Yes
Format settings, RefFrames  : 5 frames
Codec ID                    : V_MPEG4/ISO/AVC
Duration                    : 1 h 46 min
Bit rate                    : 1 052 kb/s
Width                       : 1 280 pixels
Height                      : 534 pixels
Display aspect ratio        : 2.40:1
Original display aspect rat : 2.40:1
Frame rate mode             : Constant
Frame rate                  : 23.976 (24000/1001) FPS
Color space                 : YUV
Chroma subsampling          : 4:2:0
Bit depth                   : 8 bits
Scan type                   : Progressive
Bits/(Pixel*Frame)          : 0.064
Stream size                 : 803 MiB (80%)
Writing library             : x264 core 155 r2893 b00bcaf
Encoding settings           : cabac=1 / ref=5 / deblock=1:0:0 / analyse=0x3:0x113 / me=hex / subme=8 / psy=1 / psy_rd=1.00:0.00 / mixed_ref=1 / me_range=16 / chroma_me=1 / trellis=2 / 8x8dct=1 / cqm=0 / deadzone=21,11 / fast_pskip=1 / chroma_qp_offset=-2 / threads=17 / lookahead_threads=2 / sliced_threads=0 / nr=0 / decimate=1 / interlaced=0 / bluray_compat=0 / constrained_intra=0 / bframes=3 / b_pyramid=2 / b_adapt=1 / b_bias=0 / direct=3 / weightb=1 / open_gop=0 / weightp=2 / keyint=240 / keyint_min=24 / scenecut=40 / intra_refresh=0 / rc_lookahead=50 / rc=2pass / mbtree=1 / bitrate=1052 / ratetol=1.0 / qcomp=0.60 / qpmin=0 / qpmax=69 / qpstep=4 / cplxblur=20.0 / qblur=0.5 / vbv_maxrate=62500 / vbv_bufsize=78125 / nal_hrd=none / filler=0 / ip_ratio=1.40 / aq=1:1.00
Language                    : English
Default                     : Yes
Forced                      : No
Color range                 : Limited
Color primaries             : BT.709
Transfer characteristics    : BT.709
Matrix coefficients         : BT.709

Audio #1
ID                          : 2
Format                      : MPEG Audio
Format version              : Version 1
Format profile              : Layer 3
Mode                        : Joint stereo
Mode extension              : MS Stereo
Codec ID                    : A_MPEG/L3
Codec ID/Hint               : MP3
Duration                    : 1 h 46 min
Bit rate mode               : Variable
Bit rate                    : 96.0 kb/s
Channel(s)                  : 2 channels
Sampling rate               : 48.0 kHz
Frame rate                  : 41.667 FPS (1152 SPF)
Compression mode            : Lossy
Stream size                 : 74.2 MiB (7%)
Writing library             : LAME3.99r
Encoding settings           : -m j -V 4 -q 3 -lowpass 15.1 --abr 96
Language                    : Tamil
Default                     : Yes
Forced                      : No

Audio #2
ID                          : 3
Format                      : MPEG Audio
Format version              : Version 1
Format profile              : Layer 3
Mode                        : Joint stereo
Mode extension              : MS Stereo
Codec ID                    : A_MPEG/L3
Codec ID/Hint               : MP3
Duration                    : 1 h 46 min
Bit rate mode               : Variable
Bit rate                    : 101 kb/s
Nominal bit rate            : 96.0 kb/s
Channel(s)                  : 2 channels
Sampling rate               : 48.0 kHz
Frame rate                  : 41.667 FPS (1152 SPF)
Compression mode            : Lossy
Stream size                 : 77.3 MiB (8%)
Writing library             : LAME3.99r
Encoding settings           : -m j -V 4 -q 3 -lowpass 15.1 --abr 96
Language                    : Hindi
Default                     : No
Forced                      : No

Audio #3
ID                          : 4
Format                      : AAC
Format/Info                 : Advanced Audio Codec
Format profile              : HE-AAC / LC
Codec ID                    : A_AAC
Duration                    : 1 h 46 min
Bit rate                    : 64.0 kb/s
Channel(s)                  : 2 channels
Channel positions           : Front: L R
Sampling rate               : 48.0 kHz / 24.0 kHz
Frame rate                  : 23.438 FPS (1024 SPF)
Compression mode            : Lossy
Delay relative to video     : 31 ms
Stream size                 : 48.8 MiB (5%)
Language                    : English
Default                     : No
Forced                      : No

Text
ID                          : 5
Format                      : UTF-8
Codec ID                    : S_TEXT/UTF8
Codec ID/Info               : UTF-8 Plain Text
Duration                    : 1 h 39 min
Bit rate                    : 63 b/s
Count of elements           : 1568
Stream size                 : 46.6 KiB (0%)
Language                    : English
Default                     : Yes
Forced                      : No

Menu
00:00:00.000                : :1
00:11:42.035                : :2
00:22:52.997                : :3
00:34:50.964                : :4
00:47:09.994                : :5
01:00:26.998                : :6
01:11:29.035                : :7
01:21:49.988                : :8
01:31:54.009                : :9
01:40:11.964                : :10



Death Wish (2018) 720p - HDRip - x264 - ESub [Multi Line Audios][Hindi+Tamil+English]Death Wish (2018) 720p - HDRip - x264 - ESub [Multi Line Audios][Hindi+Tamil+English]Death Wish (2018) 720p - HDRip - x264 - ESub [Multi Line Audios][Hindi+Tamil+English]Death Wish (2018) 720p - HDRip - x264 - ESub [Multi Line Audios][Hindi+Tamil+English]Death Wish (2018) 720p - HDRip - x264 - ESub [Multi Line Audios][Hindi+Tamil+English]Death Wish (2018) 720p - HDRip - x264 - ESub [Multi Line Audios][Hindi+Tamil+English]

SINGLE DIRECT FAST LINKS

http://www.heroupload.us/a5c61be747c53bc2/Death.Wish.2018.HDRip.720p.x264.Line.Audios.Tamil+Hindi+English.mkv



http://filefloater.com/1jcO/Death.Wish.2018.HDRip.720p.x264.Line.Audios.Tamil+Hindi+English.mkv



Теги: Death

Dear visitor, you are browsing our website as Guest.
We strongly recommend you to register and login to view hidden contents.

Comments:

Add Comments