Set as default Homepage|Bookmark
 
 
» » The Break-Up (2006) 720p Bluray x264 Esub [Dual Audio][Hindi+English] - Ranvijay
Advertise

The Break-Up (2006) 720p Bluray x264 Esub [Dual Audio][Hindi+English] - Ranvijay

Author: wroser on 20-05-2018, 22:39
The Break-Up (2006) 720p Bluray x264 Esub [Dual Audio][Hindi+English] - Ranvijay






The Break-Up (2006) 720p Bluray x264 Esub [Dual Audio][Hindi+English] - Ranvijay


Format                                   : Matroska
Format version                           : Version 4 / Version 2
File size                                : 1.12 GiB
Duration                                 : 1 h 46 min
Overall bit rate                         : 1 500 kb/s
Movie name                               : The Break-Up (2006) 720p BluRay x264 Dual Audio [Hindi DD5.1 - English DD2.0] - Esub ~ Ranvijay

Video
ID                                       : 1
Format                                   : AVC
Duration                                 : 1 h 46 min
Bit rate                                 : 1 039 kb/s
Width                                    : 1 280 pixels
Height                                   : 694 pixels
Display aspect ratio                     : 1.85:1
Frame rate mode                          : Constant
Frame rate                               : 23.976 (24000/1001) FPS
Color space                              : YUV
Chroma subsampling                       : 4:2:0
Bit depth                                : 8 bits
Scan type                                : Progressive
Bits/(Pixel*Frame)                       : 0.049
Stream size                              : 791 MiB (69%)
Title                                    : ~Ranvijay~
Default                                  : Yes
Forced                                   : No

Audio #1
ID                                       : 2
Format                                   : AC-3
Format/Info                              : Audio Coding 3
Codec ID                                 : A_AC3
Duration                                 : 1 h 46 min
Bit rate mode                            : Constant
Bit rate                                 : 384 kb/s
Channel(s)                               : 6 channels
Channel positions                        : Front: L C R, Side: L R, LFE
Sampling rate                            : 48.0 kHz
Frame rate                               : 31.250 FPS (1536 SPF)
Bit depth                                : 16 bits
Compression mode                         : Lossy
Delay relative to video                  : 3 s 350 ms
Stream size                              : 292 MiB (26%)
Title                                    : ~Ranvijay~
Language                                 : Hindi
Service kind                             : Complete Main
Default                                  : Yes
Forced                                   : No

Audio #2
ID                                       : 3
Format                                   : AAC
Format/Info                              : Advanced Audio Codec
Format profile                           : LC
Codec ID                                 : A_AAC-2
Duration                                 : 1 h 46 min
Bit rate                                 : 74.9 kb/s
Channel(s)                               : 2 channels
Channel positions                        : Front: L R
Sampling rate                            : 48.0 kHz
Frame rate                               : 46.875 FPS (1024 SPF)
Compression mode                         : Lossy
Delay relative to video                  : 9 ms
Stream size                              : 57.1 MiB (5%)
Title                                    : ~Ranvijay~
Language                                 : English
Default                                  : No
Forced                                   : No

Text
ID                                       : 4
Format                                   : UTF-8
Codec ID                                 : S_TEXT/UTF8
Codec ID/Info                            : UTF-8 Plain Text
Duration                                 : 1 h 43 min
Bit rate                                 : 98 b/s
Count of elements                        : 1732
Stream size                              : 75.1 KiB (0%)
Title                                    : ~Ranvijay~
Language                                 : English
Default                                  : Yes
Forced                                   : No 




The Break-Up (2006) 720p Bluray x264 Esub [Dual Audio][Hindi+English] - Ranvijay
The Break-Up (2006) 720p Bluray x264 Esub [Dual Audio][Hindi+English] - Ranvijay
The Break-Up (2006) 720p Bluray x264 Esub [Dual Audio][Hindi+English] - Ranvijay
The Break-Up (2006) 720p Bluray x264 Esub [Dual Audio][Hindi+English] - Ranvijay
The Break-Up (2006) 720p Bluray x264 Esub [Dual Audio][Hindi+English] - Ranvijay
The Break-Up (2006) 720p Bluray x264 Esub [Dual Audio][Hindi+English] - Ranvijay
The Break-Up (2006) 720p Bluray x264 Esub [Dual Audio][Hindi+English] - Ranvijay
The Break-Up (2006) 720p Bluray x264 Esub [Dual Audio][Hindi+English] - Ranvijay
The Break-Up (2006) 720p Bluray x264 Esub [Dual Audio][Hindi+English] - Ranvijay
The Break-Up (2006) 720p Bluray x264 Esub [Dual Audio][Hindi+English] - Ranvijay
The Break-Up (2006) 720p Bluray x264 Esub [Dual Audio][Hindi+English] - Ranvijay


SINGLE DIRECT FAST LINKS

http://www.heroupload.us/566101327ddec8be/The.Break-Up.2006.720p.BluRay.x264.Dual.Audio.Hindi.DD5.1+English.DD2.0.Esub-Ranvijay.mkv



http://filefloater.com/Tbe/The.Break-Up.2006.720p.BluRay.x264.Dual.Audio.Hindi.DD5.1+English.DD2.0.Esub-Ranvijay.mkv


Теги: The

Dear visitor, you are browsing our website as Guest.
We strongly recommend you to register and login to view hidden contents.

Comments:

Add Comments