Set as default Homepage|Bookmark
 
 
» » Popstar Never Stop Never Stopping (2016) 720p BluRay x264 [Dual Audio][Hindi+English]
Advertise

Popstar Never Stop Never Stopping (2016) 720p BluRay x264 [Dual Audio][Hindi+English]

Author: wroser on 19-05-2018, 22:37
Popstar Never Stop Never Stopping (2016) 720p BluRay x264 [Dual Audio][Hindi+English]




Format                                   : Matroska
Format version                           : Version 4 / Version 2
File size                                : 938 MiB
Duration                                 : 1 h 26 min
Overall bit rate                         : 1 516 kb/s
Movie name                               : Popstar Never Stop Never Stopping (2016) 720p BluRay x264 Dual Audio [Hindi DD5.1 - English DD2.0] ~ Ranvijay

Video
ID                                       : 1
Format                                   : AVC
Duration                                 : 1 h 26 min
Bit rate                                 : 1 049 kb/s
Width                                    : 1 280 pixels
Height                                   : 536 pixels
Display aspect ratio                     : 2.40:1
Frame rate mode                          : Constant
Frame rate                               : 23.976 (24000/1001) FPS
Color space                              : YUV
Chroma subsampling                       : 4:2:0
Bit depth                                : 8 bits
Scan type                                : Progressive
Bits/(Pixel*Frame)                       : 0.064
Stream size                              : 649 MiB (69%)
Title                                    : ~Ranvijay~
Language                                 : English
Default                                  : Yes
Forced                                   : No

Audio #1
ID                                       : 2
Format                                   : AC-3
Format/Info                              : Audio Coding 3
Codec ID                                 : A_AC3
Duration                                 : 1 h 26 min
Bit rate mode                            : Constant
Bit rate                                 : 384 kb/s
Channel(s)                               : 6 channels
Channel positions                        : Front: L C R, Side: L R, LFE
Sampling rate                            : 48.0 kHz
Frame rate                               : 31.250 FPS (1536 SPF)
Bit depth                                : 16 bits
Compression mode                         : Lossy
Delay relative to video                  : 500 ms
Stream size                              : 238 MiB (25%)
Title                                    : ~Ranvijay~
Language                                 : Hindi
Service kind                             : Complete Main
Default                                  : Yes
Forced                                   : No

Audio #2
ID                                       : 3
Format                                   : AAC
Format/Info                              : Advanced Audio Codec
Format profile                           : LC
Codec ID                                 : A_AAC-2
Duration                                 : 1 h 26 min
Bit rate                                 : 81.3 kb/s
Channel(s)                               : 2 channels
Channel positions                        : Front: L R
Sampling rate                            : 48.0 kHz
Frame rate                               : 46.875 FPS (1024 SPF)
Compression mode                         : Lossy
Delay relative to video                  : 9 ms
Stream size                              : 50.3 MiB (5%)
Title                                    : ~Ranvijay~
Language                                 : English
Default                                  : No
Forced                                   : No




Popstar Never Stop Never Stopping (2016) 720p BluRay x264 [Dual Audio][Hindi+English]
Popstar Never Stop Never Stopping (2016) 720p BluRay x264 [Dual Audio][Hindi+English]
Popstar Never Stop Never Stopping (2016) 720p BluRay x264 [Dual Audio][Hindi+English]
Popstar Never Stop Never Stopping (2016) 720p BluRay x264 [Dual Audio][Hindi+English]
Popstar Never Stop Never Stopping (2016) 720p BluRay x264 [Dual Audio][Hindi+English]
Popstar Never Stop Never Stopping (2016) 720p BluRay x264 [Dual Audio][Hindi+English]
Popstar Never Stop Never Stopping (2016) 720p BluRay x264 [Dual Audio][Hindi+English]
Popstar Never Stop Never Stopping (2016) 720p BluRay x264 [Dual Audio][Hindi+English]
Popstar Never Stop Never Stopping (2016) 720p BluRay x264 [Dual Audio][Hindi+English]
Popstar Never Stop Never Stopping (2016) 720p BluRay x264 [Dual Audio][Hindi+English]
Popstar Never Stop Never Stopping (2016) 720p BluRay x264 [Dual Audio][Hindi+English]

SINGLE DIRECT FAST LINKS
http://www.heroupload.us/de376fcc9d9a1293/Popstar.Never.Stop.Never.Stopping.2016.720p.BluRay.x264.Dual.Audio.Hindi.DD5.1+English.DD2.0-Ranvijay.mkv



http://filefloater.com/Tb6/Popstar.Never.Stop.Never.Stopping.2016.720p.BluRay.x264.Dual.Audio.Hindi.DD5.1+English.DD2.0-Ranvijay.mkv



Теги: Popstar

Dear visitor, you are browsing our website as Guest.
We strongly recommend you to register and login to view hidden contents.

Comments:

Add Comments
Reply
  • Group: Members
  • ICQ:
  • Registration: 21.05.2018
  • Status: Currently Offline
  • 3 Comments
  • 0 Article
^
This film is one of the greatest I have never experienced such epic film its one of a kind which consist of many amazing twists the story is all brand new which contain some brilliant information which I would like to share in Academic Paper Writing Company which offers some significant stuffs here thou.