Set as default Homepage|Bookmark
 
 
» » Black Panther (2018) 1080p BluRay x264 Esub [Dual Audio][Hindi+English] - Ranvijay
Advertise

Black Panther (2018) 1080p BluRay x264 Esub [Dual Audio][Hindi+English] - Ranvijay

Author: wroser on 17-05-2018, 23:47
Black Panther (2018) 1080p BluRay x264 Esub [Dual Audio][Hindi+English] - Ranvijay






Black Panther (2018) 1080p BluRay x264 Esub [Dual Audio][Hindi+English] - Ranvijay




Format : Matroska
Format version : Version 4 / Version 2
File size : 5.39 GiB
Duration : 2 h 14 min
Overall bit rate : 5 739 kb/s
Movie name : Black Panther (2018) 1080p Bluray x264 Dual Audio [Hindi DD2.0 ORG - English DD5.1] - Esubs ~ Ranvijay

Video
ID : 1
Format : AVC
Duration : 2 h 14 min
Bit rate : 4 899 kb/s
Width : 1 920 pixels
Height : 804 pixels
Display aspect ratio : 2.40:1
Frame rate mode : Constant
Frame rate : 23.976 (24000/1001) FPS
Color space : YUV
Chroma subsampling : 4:2:0
Bit depth : 8 bits
Scan type : Progressive
Bits/(Pixel*Frame) : 0.132
Stream size : 4.60 GiB (85%)
Language : English
Default : Yes
Forced : No

Audio #1
ID : 2
Format : AC-3
Format/Info : Audio Coding 3
Codec ID : A_AC3
Duration : 2 h 14 min
Bit rate mode : Constant
Bit rate : 384 kb/s
Channel(s) : 2 channels
Channel positions : Front: L R
Sampling rate : 48.0 kHz
Frame rate : 31.250 FPS (1536 SPF)
Bit depth : 16 bits
Compression mode : Lossy
Stream size : 370 MiB (7%)
Title : ~Ranvijay~
Language : Hindi
Service kind : Complete Main
Default : Yes
Forced : No

Audio #2
ID : 3
Format : AC-3
Format/Info : Audio Coding 3
Codec ID : A_AC3
Duration : 2 h 14 min
Bit rate mode : Constant
Bit rate : 448 kb/s
Channel(s) : 6 channels
Channel positions : Front: L C R, Side: L R, LFE
Sampling rate : 48.0 kHz
Frame rate : 31.250 FPS (1536 SPF)
Bit depth : 16 bits
Compression mode : Lossy
Stream size : 431 MiB (8%)
Title : ~Ranvijay~
Language : English
Service kind : Complete Main
Default : No
Forced : No

Text #1
ID : 4
Format : VobSub
Muxing mode : zlib
Codec ID : S_VOBSUB
Codec ID/Info : Picture based subtitle format used on DVDs
Duration : 2 h 14 min
Bit rate : 8 920 b/s
Count of elements : 1835
Stream size : 8.56 MiB (0%)
Title : ~Ranvijay~
Language : English
Default : Yes
Forced : No

Text #2
ID : 5
Format : UTF-8
Codec ID : S_TEXT/UTF8
Codec ID/Info : UTF-8 Plain Text
Duration : 2 h 14 min
Bit rate : 49 b/s
Count of elements : 1835
Stream size : 48.2 KiB (0%)
Title : SDH
Language : English
Default : No
Forced : No

Text #3
ID : 6
Format : UTF-8
Codec ID : S_TEXT/UTF8
Codec ID/Info : UTF-8 Plain Text
Duration : 2 h 14 min
Bit rate : 42 b/s
Count of elements : 1586
Stream size : 41.4 KiB (0%)
Title : Full
Language : English
Default : No
Forced : No

Text #4
ID : 7
Format : UTF-8
Codec ID : S_TEXT/UTF8
Codec ID/Info : UTF-8 Plain Text
Duration : 2 h 14 min
Bit rate : 66 b/s
Count of elements : 1834
Stream size : 65.1 KiB (0%)
Title : SDH-Colored
Language : English
Default : No
Forced : No 






Black Panther (2018) 1080p BluRay x264 Esub [Dual Audio][Hindi+English] - Ranvijay
Black Panther (2018) 1080p BluRay x264 Esub [Dual Audio][Hindi+English] - Ranvijay
Black Panther (2018) 1080p BluRay x264 Esub [Dual Audio][Hindi+English] - Ranvijay
Black Panther (2018) 1080p BluRay x264 Esub [Dual Audio][Hindi+English] - Ranvijay
Black Panther (2018) 1080p BluRay x264 Esub [Dual Audio][Hindi+English] - Ranvijay
Black Panther (2018) 1080p BluRay x264 Esub [Dual Audio][Hindi+English] - Ranvijay
Black Panther (2018) 1080p BluRay x264 Esub [Dual Audio][Hindi+English] - Ranvijay
Black Panther (2018) 1080p BluRay x264 Esub [Dual Audio][Hindi+English] - Ranvijay
Black Panther (2018) 1080p BluRay x264 Esub [Dual Audio][Hindi+English] - Ranvijay
Black Panther (2018) 1080p BluRay x264 Esub [Dual Audio][Hindi+English] - Ranvijay
Black Panther (2018) 1080p BluRay x264 Esub [Dual Audio][Hindi+English] - Ranvijay
Black Panther (2018) 1080p BluRay x264 Esub [Dual Audio][Hindi+English] - Ranvijay


SINGLE DIRECT FAST LINKS

http://www.heroupload.us/f042f6ab69f6a087/Black.Panther.2018.1080p.Bluray.x264.Dual.Audio.Hindi.DD2.0.ORG.English.DD5.1.Esubs-Ranvijay.mkv


1GB LINKS

http://www.heroupload.us/6fc29a3076865a42/Black.Panther.2018.1080p.Bluray.x264.Dual.Audio.Hindi.DD2.0.ORG.English.DD5.1.Esubs-Ranvijay.part1.rar
http://www.heroupload.us/f6233833a62a7bb8/Black.Panther.2018.1080p.Bluray.x264.Dual.Audio.Hindi.DD2.0.ORG.English.DD5.1.Esubs-Ranvijay.part2.rar
http://www.heroupload.us/8b57ecdb39eb982b/Black.Panther.2018.1080p.Bluray.x264.Dual.Audio.Hindi.DD2.0.ORG.English.DD5.1.Esubs-Ranvijay.part3.rar
http://www.heroupload.us/eeaa550375627e04/Black.Panther.2018.1080p.Bluray.x264.Dual.Audio.Hindi.DD2.0.ORG.English.DD5.1.Esubs-Ranvijay.part4.rar
http://www.heroupload.us/f32aced532674a65/Black.Panther.2018.1080p.Bluray.x264.Dual.Audio.Hindi.DD2.0.ORG.English.DD5.1.Esubs-Ranvijay.part5.rar
http://www.heroupload.us/ceb804366d05106c/Black.Panther.2018.1080p.Bluray.x264.Dual.Audio.Hindi.DD2.0.ORG.English.DD5.1.Esubs-Ranvijay.part6.rar


http://filefloater.com/T85/Black.Panther.2018.1080p.Bluray.x264.Dual.Audio.Hindi.DD2.0.ORG.English.DD5.1.Esubs-Ranvijay.part1.rar
http://filefloater.com/T86/Black.Panther.2018.1080p.Bluray.x264.Dual.Audio.Hindi.DD2.0.ORG.English.DD5.1.Esubs-Ranvijay.part2.rar
http://filefloater.com/T87/Black.Panther.2018.1080p.Bluray.x264.Dual.Audio.Hindi.DD2.0.ORG.English.DD5.1.Esubs-Ranvijay.part3.rar
http://filefloater.com/T88/Black.Panther.2018.1080p.Bluray.x264.Dual.Audio.Hindi.DD2.0.ORG.English.DD5.1.Esubs-Ranvijay.part4.rar
http://filefloater.com/T89/Black.Panther.2018.1080p.Bluray.x264.Dual.Audio.Hindi.DD2.0.ORG.English.DD5.1.Esubs-Ranvijay.part5.rar
http://filefloater.com/T8a/Black.Panther.2018.1080p.Bluray.x264.Dual.Audio.Hindi.DD2.0.ORG.English.DD5.1.Esubs-Ranvijay.part6.rar


Теги: Black

Dear visitor, you are browsing our website as Guest.
We strongly recommend you to register and login to view hidden contents.

Comments:

Add Comments