Set as default Homepage|Bookmark
 
 
» » Mortdecai (2015) 720p BluRay x264 Esubs [Dual Audio][Hindi+English] - Maher Exclusive
Advertise

Mortdecai (2015) 720p BluRay x264 Esubs [Dual Audio][Hindi+English] - Maher Exclusive

Author: wroser on 19-03-2018, 00:55
Mortdecai (2015) 720p BluRay x264 Esubs [Dual Audio][Hindi+English] - Maher Exclusive






Format : Matroska
Format version : Version 4 / Version 2
File size : 1 005 MiB
Duration : 1 h 46 min
Overall bit rate : 1 315 kb/s
Encoded date : UTC 2018-03-17 10:57:51
Writing application : mkvmerge v9.7.1 ('Pandemonium') 64bit
Writing library : libebml v1.3.4 + libmatroska v1.4.5

Video
ID : 1
Format : AVC
Format/Info : Advanced Video Codec
Format profile : High@L4.1
Format settings, CABAC : Yes
Format settings, ReFrames : 4 frames
Codec ID : V_MPEG4/ISO/AVC
Duration : 1 h 46 min
Bit rate : 966 kb/s
Width : 1 280 pixels
Height : 536 pixels
Display aspect ratio : 2.40:1
Frame rate mode : Constant
Frame rate : 23.976 (24000/1001) FPS
Original frame rate : 23.976 (23976/1000) FPS
Color space : YUV
Chroma subsampling : 4:2:0
Bit depth : 8 bits
Scan type : Progressive
Bits/(Pixel*Frame) : 0.059
Stream size : 737 MiB (73%)
Writing library : x264 core 123 r2189 35cf912
Encoding settings : cabac=1 / ref=4 / deblock=1:-1:-1 / analyse=0x3:0x133 / me=umh / subme=9 / psy=1 / psy_rd=1.00:0.15 / mixed_ref=1 / me_range=24 / chroma_me=1 / trellis=2 / 8x8dct=1 / cqm=0 / deadzone=21,11 / fast_pskip=0 / chroma_qp_offset=-3 / threads=12 / sliced_threads=0 / nr=0 / decimate=1 / interlaced=0 / bluray_compat=0 / constrained_intra=0 / bframes=3 / b_pyramid=2 / b_adapt=2 / b_bias=0 / direct=3 / weightb=1 / open_gop=0 / weightp=2 / keyint=250 / keyint_min=23 / scenecut=40 / intra_refresh=0 / rc_lookahead=60 / rc=2pass / mbtree=1 / bitrate=966 / ratetol=1.0 / qcomp=0.60 / qpmin=0 / qpmax=69 / qpstep=4 / cplxblur=20.0 / qblur=0.5 / vbv_maxrate=31250 / vbv_bufsize=31250 / nal_hrd=none / ip_ratio=1.40 / aq=1:1.00
Default : Yes
Forced : No
Color range : Limited
Color primaries : BT.709
Matrix coefficients : BT.709

Audio #1
ID : 2
Format : AAC
Format/Info : Advanced Audio Codec
Format profile : LC
Codec ID : A_AAC
Duration : 1 h 46 min
Bit rate : 93.8 kb/s
Channel(s) : 2 channels
Channel positions : Front: L R
Sampling rate : 48.0 kHz
Frame rate : 46.875 FPS (1024 spf)
Compression mode : Lossy
Stream size : 71.6 MiB (7%)
Language : English
Default : No
Forced : No

Audio #2
ID : 3
Format : AAC
Format/Info : Advanced Audio Codec
Format profile : LC
Codec ID : A_AAC
Duration : 1 h 46 min
Bit rate : 254 kb/s
Channel(s) : 2 channels
Channel positions : Front: L R
Sampling rate : 44.1 kHz
Frame rate : 43.066 FPS (1024 spf)
Compression mode : Lossy
Stream size : 194 MiB (19%)
Title : by-MAHER
Language : Hindi
Default : Yes
Forced : Yes

Text
ID : 4
Format : UTF-8
Codec ID : S_TEXT/UTF8
Codec ID/Info : UTF-8 Plain Text
Duration : 1 h 40 min
Bit rate : 70 b/s
Count of elements : 1366
Stream size : 52.0 KiB (0%)
Default : Yes
Forced : No






Mortdecai (2015) 720p BluRay x264 Esubs [Dual Audio][Hindi+English] - Maher Exclusive
Mortdecai (2015) 720p BluRay x264 Esubs [Dual Audio][Hindi+English] - Maher Exclusive
Mortdecai (2015) 720p BluRay x264 Esubs [Dual Audio][Hindi+English] - Maher Exclusive
Mortdecai (2015) 720p BluRay x264 Esubs [Dual Audio][Hindi+English] - Maher Exclusive
Mortdecai (2015) 720p BluRay x264 Esubs [Dual Audio][Hindi+English] - Maher Exclusive


SINGLE DIRECT FAST LINKS

http://www.heroupload.us/053a23b494cfb129/Mortdecai.2015.x264.720p.Dual.Audio.Hindi+English.BluRay.Esubs.Exclusive-Maher.mkv


http://filefloater.com/7vy/Mortdecai.2015.x264.720p.Dual.Audio.Hindi+English.BluRay.Esubs.Exclusive-Maher.mkv



Теги: Mortdecai

Dear visitor, you are browsing our website as Guest.
We strongly recommend you to register and login to view hidden contents.

Comments:

Add Comments