Set as default Homepage|Bookmark
 
 
» » Murder On The Orient Express (2017) 720p BluRay x264 [Dual Audio][Hindi+English]
Advertise

Murder On The Orient Express (2017) 720p BluRay x264 [Dual Audio][Hindi+English]

Author: wroser on 10-02-2018, 13:42
Murder On The Orient Express (2017) 720p BluRay x264 [Dual Audio][Hindi+English]






Murder On The Orient Express (2017) 720p BluRay X264 Dual Audio [Hindi DD5.1 - English DD2.0] - Msubs ~ Ranvijay

Thanks To Rajput For Hindi Audio

Format                                   : Matroska
Format version                           : Version 4 / Version 2
File size                                : 1.76 GiB
Duration                                 : 1 h 53 min
Overall bit rate                         : 2 207 kb/s
Movie name                               : Murder On The Orient Express (2017) 720p BluRay X264 Dual Audio [[Hindi DD5.1 - English DD2.0] - Msubs ~ Ranvijay

Video
Duration                                 : 1 h 53 min
Bit rate                                 : 1 500 kb/s
Width                                    : 1 280 pixels
Height                                   : 536 pixels
Display aspect ratio                     : 2.40:1
Frame rate mode                          : Constant
Frame rate                               : 23.976 (24000/1001) FPS
Original frame rate                      : 23.976 (23976/1000) FPS
Color space                              : YUV
Chroma subsampling                       : 4:2:0
Bit depth                                : 8 bits
Scan type                                : Progressive
Bits/(Pixel*Frame)                       : 0.091
Stream size                              : 1.19 GiB (68%)
Title                                    : ~Ranvijay~
Default                                  : Yes
Forced                                   : No

Audio #1
ID                                       : 2
Format                                   : AC-3
Format/Info                              : Audio Coding 3
Codec ID                                 : A_AC3
Duration                                 : 1 h 53 min
Bit rate mode                            : Constant
Bit rate                                 : 448 kb/s
Channel(s)                               : 6 channels
Channel positions                        : Front: L C R, Side: L R, LFE
Sampling rate                            : 48.0 kHz
Frame rate                               : 31.250 FPS (1536 SPF)
Bit depth                                : 16 bits
Compression mode                         : Lossy
Stream size                              : 365 MiB (20%)
Title                                    : ~Ranvijay~
Language                                 : Hindi
Service kind                             : Complete Main
Default                                  : Yes
Forced                                   : No

Audio #2
ID                                       : 3
Format                                   : AAC
Format/Info                              : Advanced Audio Codec
Format profile                           : LC
Codec ID                                 : A_AAC-2
Duration                                 : 1 h 53 min
Bit rate                                 : 224 kb/s
Channel(s)                               : 2 channels
Channel positions                        : Front: L R
Sampling rate                            : 48.0 kHz
Frame rate                               : 46.875 FPS (1024 SPF)
Compression mode                         : Lossy
Stream size                              : 183 MiB (10%)
Title                                    : ~Ranvijay~
Language                                 : English
Default                                  : No
Forced                                   : No

Text #1
ID                                       : 4
Format                                   : PGS
Muxing mode                              : zlib
Codec ID                                 : S_HDMV/PGS
Codec ID/Info                            : Picture based subtitle format used on BDs/HD-DVDs
Duration                                 : 1 h 52 min
Bit rate                                 : 33.2 kb/s
Count of elements                        : 3155
Stream size                              : 26.8 MiB (1%)
Title                                    : ~Ranvijay~
Default                                  : Yes
Forced                                   : No

Text #2
ID                                       : 5
Format                                   : VobSub
Muxing mode                              : zlib
Codec ID                                 : S_VOBSUB
Codec ID/Info                            : Picture based subtitle format used on DVDs
Duration                                 : 1 h 45 min
Bit rate                                 : 13.1 kb/s
Count of elements                        : 1978
Stream size                              : 9.91 MiB (1%)
Title                                    : ~Ranvijay~
Language                                 : English
Default                                  : No
Forced                                   : No

Text #3
ID                                       : 6
Format                                   : VobSub
Muxing mode                              : zlib
Codec ID                                 : S_VOBSUB
Codec ID/Info                            : Picture based subtitle format used on DVDs
Duration                                 : 1 h 53 min
Bit rate                                 : 21.8 kb/s
Count of elements                        : 2284
Stream size                              : 17.8 MiB (1%)
Title                                    : ~Ranvijay~
Language                                 : English
Default                                  : No
Forced                                   : No

Text #4
ID                                       : 7
Format                                   : VobSub
Muxing mode                              : zlib
Codec ID                                 : S_VOBSUB
Codec ID/Info                            : Picture based subtitle format used on DVDs
Duration                                 : 1 h 33 min
Bit rate                                 : 70 b/s
Count of elements                        : 25
Stream size                              : 48.1 KiB (0%)
Language                                 : English
Default                                  : No
Forced                                   : No 



Murder On The Orient Express (2017) 720p BluRay x264 [Dual Audio][Hindi+English]
Murder On The Orient Express (2017) 720p BluRay x264 [Dual Audio][Hindi+English]
Murder On The Orient Express (2017) 720p BluRay x264 [Dual Audio][Hindi+English]
Murder On The Orient Express (2017) 720p BluRay x264 [Dual Audio][Hindi+English]
Murder On The Orient Express (2017) 720p BluRay x264 [Dual Audio][Hindi+English]
Murder On The Orient Express (2017) 720p BluRay x264 [Dual Audio][Hindi+English]
Murder On The Orient Express (2017) 720p BluRay x264 [Dual Audio][Hindi+English]

SINGLE DIRECT FAST LINKS

http://filefloater.com/4rx/Murder.On.The.Orient.Express.2017.720p.BluRay.X264.Dual.Audio.Hindi.DD5.1+English.DD2.0.Msubs-Ranvijay.mkv


https://www.heroupload.com/da1fc0dafefdbab6/Murder.On.The.Orient.Express.2017.720p.BluRay.X264.Dual.Audio.Hindi.DD5.1+English.DD2.0.Msubs-Ranvijay.mkv



Теги: Murder

Dear visitor, you are browsing our website as Guest.
We strongly recommend you to register and login to view hidden contents.

Comments:

Add Comments